<?xml version="1.0" encoding="UTF-8"?>
<svg height="100%" width="100%" xmlns="http://www.w3.org/2000/svg">
	<defs>
		<font horiz-adv-x="0" id="web">
			<font-face alphabetic="0" ascent="2210" descent="-514" font-family="" panose-1="2 11 8 2 4 2 4 2 2 3" units-per-em="2048"/>
			<missing-glyph d="M166 1398H1156V0H166ZM314 1250V148H1008V1250Z" horiz-adv-x="1322"/>
			<glyph d="" horiz-adv-x="561" unicode=" "/>
			<glyph d="M168 1434H500L461 446H205ZM336 307Q416 307 467 260T518 143Q518 71 467 24T336 -23Q256 -23 204 25T152 143Q152 215 204 261T336 307Z" horiz-adv-x="670" unicode="!"/>
			<glyph d="M571 1452H834L803 1008H602ZM176 1452H438L408 1010H205Z" horiz-adv-x="1010" unicode="&quot;"/>
			<glyph d="M426 1425H631L557 1069H786L862 1425H1065L991 1069H1176L1137 889H952L897 641H1104L1059 461H860L782 115H582L655 461H426L352 115H152L223 461H37L74 641H262L315 889H113L147 1069H352ZM518 889L463 641H694L750 889Z" horiz-adv-x="1213" unicode="#"/>
			<glyph d="M528 1620H674V1438Q885 1428 989 1370V1100Q849 1185 674 1204V825Q893 746 988 644T1083 399Q1083 233 977 131T674 8V-209H528V2Q325 3 150 94V371Q208 324 323 284T528 238V602Q294 689 208 790T123 1038Q123 1195 234 1305T528 1434ZM528 1200Q389 1175 389 1055Q389 952 528 883ZM674 545V242Q817 264 817 385Q817 483 674 545Z" horiz-adv-x="1178" unicode="$"/>
			<glyph d="M455 1454Q614 1454 703 1359T793 1092Q793 915 694 811T430 707Q277 707 183 804T90 1065Q90 1244 189 1349T455 1454ZM449 1278Q303 1278 303 1075Q303 883 442 883Q584 883 584 1083Q584 1278 449 1278ZM1231 1434H1477L543 0H299ZM1348 727Q1508 727 1597 633T1686 367Q1686 190 1587 85T1323 -20Q1170 -20 1076 77T983 338Q983 517 1082 622T1348 727ZM1339 551Q1194 551 1194 348Q1194 156 1335 156Q1477 156 1477 356Q1477 449 1439 500T1339 551Z" horiz-adv-x="1776" unicode="%"/>
			<glyph d="M682 1458Q774 1458 850 1435T982 1371T1067 1272T1097 1146Q1097 1035 1030 953T843 821Q891 799 935 771T1021 707T1103 625T1182 521Q1264 624 1299 740T1335 983Q1335 1021 1330 1056T1316 1121H1585Q1596 1089 1601 1059T1606 988Q1606 891 1585 799T1528 623T1438 464T1323 324Q1372 273 1424 245T1522 218Q1570 218 1620 228T1707 258V20Q1652 -2 1598 -12T1479 -23Q1426 -23 1378 -9T1288 29T1208 85T1136 155Q1099 125 1047 93T929 35T785 -6T616 -23Q499 -23 399 5T228 88T115 226T75 416Q75 501 105 567T185 684T296 770T422 830Q391 854 359 885T303 954T262 1036T247 1129Q247 1208 279 1269T368 1372T506 1436T682 1458ZM604 700Q563 680 525 655T459 598T412 524T395 429Q395 381 412 342T460 275T535 231T632 216Q691 216 743 227T841 258T926 302T999 354Q948 434 898 489T799 584T701 651T604 700ZM682 1247Q649 1247 621 1237T573 1210T542 1169T531 1119Q531 1063 566 1016T653 940Q686 952 715 968T767 1006T803 1057T817 1124Q817 1153 806 1176T776 1214T733 1238T682 1247Z" horiz-adv-x="1740" unicode="&amp;"/>
			<glyph d="M170 1452H430L399 1010H199Z" horiz-adv-x="600" unicode="'"/>
			<glyph d="M481 1434H737Q434 1032 434 549Q434 66 739 -326H481Q158 30 158 549Q158 1050 481 1434Z" horiz-adv-x="756" unicode="("/>
			<glyph d="M18 1434H276Q600 1049 600 549Q600 34 274 -326H18Q324 64 324 549Q324 1030 18 1434Z" horiz-adv-x="756" unicode=")"/>
			<glyph d="M350 1434H584L541 1147L791 1255L864 1053L590 1016L786 805L604 680L467 934L330 680L147 805L344 1016L70 1053L141 1255L393 1147Z" horiz-adv-x="932" unicode="*"/>
			<glyph d="M625 1075H827V688H1212V485H827V100H625V485H238V688H625Z" horiz-adv-x="1448" unicode="+"/>
			<glyph d="M141 252H432L285 -254H39Z" horiz-adv-x="555" unicode=","/>
			<glyph d="M143 657H690V436H143Z" horiz-adv-x="828" unicode="-"/>
			<glyph d="M279 305Q360 305 411 258T463 141Q463 68 410 21T274 -25Q196 -25 144 23T92 141Q92 213 145 259T279 305Z" horiz-adv-x="555" unicode="."/>
			<glyph d="M647 1434H932L233 -238H-49Z" horiz-adv-x="908" unicode="/"/>
			<glyph d="M609 1458Q1109 1458 1109 727Q1109 363 972 169T581 -25Q69 -25 69 694Q69 1067 207 1262T609 1458ZM595 1217Q390 1217 390 702Q390 217 591 217Q787 217 787 717Q787 1217 595 1217Z" horiz-adv-x="1178" unicode="0"/>
			<glyph d="M641 1466H832V0H517V1110Q491 1087 455 1066T380 1029T297 1001T212 985V1251Q335 1287 444 1343T641 1466Z" horiz-adv-x="1178" unicode="1"/>
			<glyph d="M574 1458Q683 1458 769 1429T916 1348T1007 1219T1039 1051Q1039 952 1008 875T927 735T811 619T674 518Q626 484 581 450T503 384T449 321T429 262H1037V0H83V108Q83 218 120 305T213 462T335 585T462 682Q525 727 572 768T652 849T701 931T717 1020Q717 1112 665 1159T506 1206Q321 1206 152 1059V1337Q339 1458 574 1458Z" horiz-adv-x="1178" unicode="2"/>
			<glyph d="M523 1458Q743 1458 865 1359T988 1102Q988 821 703 750V745Q855 726 943 634T1031 410Q1031 209 884 92T478 -25Q256 -25 117 47V322Q261 217 453 217Q574 217 641 269T709 414Q709 510 625 562T396 614H263V856H386Q666 856 666 1042Q666 1217 451 1217Q307 1217 171 1124V1382Q322 1458 523 1458Z" horiz-adv-x="1178" unicode="3"/>
			<glyph d="M659 1434H952V530H1124V294H952V0H664V294H39V541Q122 634 211 744T383 972T537 1207T659 1434ZM664 1031Q629 966 588 899T502 768T411 643T322 530H664Z" horiz-adv-x="1178" unicode="4"/>
			<glyph d="M218 1434H977V1176H459L439 889Q516 895 572 895Q793 895 918 779T1043 467Q1043 250 894 112T490 -25Q283 -25 142 37V307Q289 217 455 217Q580 217 650 276T721 438Q721 651 420 651Q309 651 164 634Z" horiz-adv-x="1178" unicode="5"/>
			<glyph d="M750 1458Q916 1458 1008 1419V1155Q899 1217 770 1217Q690 1217 625 1186T513 1098T440 960T412 781H418Q520 922 719 922Q808 922 880 890T1003 799T1082 659T1110 477Q1110 371 1073 279T970 119T813 13T614 -25Q493 -25 397 20T236 150T135 360T100 641Q100 826 145 976T275 1234T480 1399T750 1458ZM612 688Q569 688 534 672T474 627T435 558T422 471Q422 418 436 372T475 291T536 237T614 217Q657 217 691 234T750 283T788 359T801 457Q801 688 612 688Z" horiz-adv-x="1178" unicode="6"/>
			<glyph d="M96 1434H1094V1252Q998 1079 922 927T788 628T689 328T622 0H292Q320 167 366 322T472 622T606 906T762 1176H96Z" horiz-adv-x="1178" unicode="7"/>
			<glyph d="M592 1458Q694 1458 779 1429T925 1350T1021 1231T1055 1081Q1055 979 991 895T814 758Q884 734 937 696T1026 611T1080 506T1098 389Q1098 297 1061 221T956 91T795 7T589 -23Q478 -23 384 6T223 90T118 219T80 386Q80 446 97 501T150 604T237 689T361 751Q252 805 192 889T132 1077Q132 1159 166 1229T262 1350T407 1429T592 1458ZM590 625Q545 625 506 609T439 565T395 498T379 413Q379 364 394 325T437 259T503 217T590 203Q636 203 674 218T741 260T785 326T801 413Q801 456 786 495T743 562T676 608T590 625ZM594 1231Q556 1231 524 1216T470 1177T435 1119T423 1048Q423 1010 436 976T473 918T527 880T594 866Q630 866 661 880T715 919T752 977T766 1048Q766 1087 753 1120T716 1178T661 1217T594 1231Z" horiz-adv-x="1178" unicode="8"/>
			<glyph d="M584 1458Q701 1458 794 1412T952 1281T1052 1070T1087 786Q1087 595 1045 444T922 190T726 30T463 -25Q287 -25 160 31V291Q273 217 432 217Q595 217 687 328T780 649L774 651Q679 510 485 510Q397 510 322 543T193 634T108 774T78 952Q78 1065 115 1158T218 1318T378 1421T584 1458ZM575 1217Q534 1217 499 1199T440 1149T401 1074T387 979Q387 923 401 879T440 806T502 760T582 745Q624 745 658 761T716 806T754 872T768 954Q768 1009 754 1057T715 1141T654 1196T575 1217Z" horiz-adv-x="1178" unicode="9"/>
			<glyph d="M279 1036Q360 1036 411 989T463 872Q463 799 410 753T274 707Q196 707 144 754T92 872Q92 944 145 990T279 1036ZM279 305Q360 305 411 258T463 141Q463 68 410 21T274 -25Q196 -25 144 23T92 141Q92 213 145 259T279 305Z" horiz-adv-x="555" unicode=":"/>
			<glyph d="M283 1036Q364 1036 415 989T467 872Q467 799 416 753T281 707Q202 707 150 755T98 872Q98 945 150 990T283 1036ZM141 252H432L285 -254H39Z" horiz-adv-x="555" unicode=";"/>
			<glyph d="M1192 1098V860L526 575V569L1192 301V63L258 489V651Z" horiz-adv-x="1448" unicode="&lt;"/>
			<glyph d="M238 905H1212V700H238ZM238 469H1212V266H238Z" horiz-adv-x="1448" unicode="="/>
			<glyph d="M258 1108L1192 664V502L258 76V313L926 580V584L258 870Z" horiz-adv-x="1448" unicode="&gt;"/>
			<glyph d="M418 1458Q511 1458 591 1437T730 1373T823 1260T857 1096Q857 1035 843 985T802 892T735 807T643 724Q608 695 581 670T537 620T511 568T502 506Q502 482 508 457T526 415H263Q253 441 247 473T242 535Q242 581 251 619T278 690T323 754T386 815Q424 847 452 874T501 929T531 986T541 1052Q541 1083 530 1109T498 1155T448 1185T383 1196Q305 1196 221 1163T62 1065V1366Q139 1412 230 1435T418 1458ZM409 307Q488 307 540 260Q592 214 592 143Q592 71 541 24Q489 -23 409 -23Q329 -23 276 25Q223 75 223 143Q223 213 276 260T409 307Z" horiz-adv-x="897" unicode="?"/>
			<glyph d="M1018 1452Q1378 1452 1600 1259T1823 752Q1823 493 1687 336T1350 180Q1251 180 1189 233T1122 371H1116Q1046 180 862 180Q724 180 639 280T555 557Q555 786 672 929T954 1073Q1103 1073 1141 956H1145L1155 1055H1380Q1335 629 1335 498Q1335 358 1411 358Q1491 358 1543 464T1595 741Q1595 975 1446 1124T1030 1274Q744 1274 554 1074T365 588Q365 310 532 150T995 -10Q1220 -10 1407 76V-115Q1236 -188 967 -188Q598 -188 366 23T135 592Q135 956 382 1204T1018 1452ZM989 899Q899 899 842 796T786 559Q786 463 824 409T924 356Q1018 356 1072 457T1126 727Q1126 807 1088 853T989 899Z" horiz-adv-x="1954" unicode="@"/>
			<glyph d="M532 1434H915L1425 0H1073L971 319H461L360 0H10ZM711 1178Q706 1115 686 1053L530 567H897L743 1049Q726 1103 719 1178Z" horiz-adv-x="1440" unicode="A"/>
			<glyph d="M164 1434H686Q926 1434 1055 1346T1184 1098Q1184 982 1105 895T905 774V770Q1058 751 1149 657T1241 428Q1241 231 1100 115T715 0H164ZM487 1196V856H629Q729 856 786 904T844 1038Q844 1196 608 1196ZM487 616V238H662Q774 238 837 290T901 432Q901 518 838 567T664 616Z" horiz-adv-x="1313" unicode="B"/>
			<glyph d="M838 1458Q1048 1458 1192 1405V1094Q1048 1180 864 1180Q662 1180 538 1053T414 709Q414 501 531 377T846 254Q1035 254 1192 346V51Q1035 -25 782 -25Q452 -25 263 169T74 686Q74 1030 286 1244T838 1458Z" horiz-adv-x="1278" unicode="C"/>
			<glyph d="M164 1434H672Q1436 1434 1436 735Q1436 400 1227 200T672 0H164ZM487 1171V262H647Q857 262 976 388T1096 731Q1096 936 977 1053T645 1171Z" horiz-adv-x="1510" unicode="D"/>
			<glyph d="M164 1434H991V1171H487V852H956V590H487V262H1024V0H164Z" horiz-adv-x="1090" unicode="E"/>
			<glyph d="M164 1434H993V1171H487V819H952V557H487V0H164Z" horiz-adv-x="1065" unicode="F"/>
			<glyph d="M872 1458Q1100 1458 1274 1395V1092Q1108 1188 868 1188Q667 1188 540 1057T414 709Q414 488 527 367T834 246Q950 246 1018 279V559H731V817H1341V96Q1131 -25 819 -25Q473 -25 273 166T74 694Q74 1032 292 1245T872 1458Z" horiz-adv-x="1456" unicode="G"/>
			<glyph d="M164 1434H487V862H1081V1434H1405V0H1081V584H487V0H164Z" horiz-adv-x="1569" unicode="H"/>
			<glyph d="M164 1434H487V0H164Z" horiz-adv-x="649" unicode="I"/>
			<glyph d="M440 1434H762V569Q762 281 628 128T242 -25Q129 -25 33 14V317Q116 254 219 254Q440 254 440 582Z" horiz-adv-x="912" unicode="J"/>
			<glyph d="M164 1434H487V756H492Q504 784 532 836L928 1434H1313L813 750L1356 0H948L530 623Q518 641 492 702H487V0H164Z" horiz-adv-x="1329" unicode="K"/>
			<glyph d="M164 1434H487V262H1018V0H164Z" horiz-adv-x="1047" unicode="L"/>
			<glyph d="M164 1434H637L930 584Q965 482 981 379H987Q1014 498 1044 586L1337 1434H1798V0H1479V858Q1479 997 1491 1165H1483Q1458 1033 1438 975L1102 0H838L496 965Q482 1004 451 1165H442Q455 953 455 793V0H164Z" horiz-adv-x="1960" unicode="M"/>
			<glyph d="M164 1434H512L1081 561Q1120 502 1153 444H1157Q1149 494 1149 641V1434H1454V0H1128L537 901Q485 980 465 1020H461Q469 944 469 788V0H164Z" horiz-adv-x="1618" unicode="N"/>
			<glyph d="M793 1458Q1100 1458 1289 1257T1479 727Q1479 389 1282 182T770 -25Q462 -25 268 175T74 698Q74 1038 271 1248T793 1458ZM784 1180Q614 1180 514 1052T414 715Q414 502 514 378T776 254Q943 254 1041 374T1139 709Q1139 932 1044 1056T784 1180Z" horiz-adv-x="1553" unicode="O"/>
			<glyph d="M164 1434H670Q1212 1434 1212 977Q1212 761 1056 627T641 494H487V0H164ZM487 1186V739H614Q872 739 872 965Q872 1186 614 1186Z" horiz-adv-x="1258" unicode="P"/>
			<glyph d="M793 1458Q1100 1458 1289 1257Q1479 1057 1479 727Q1479 390 1282 182Q1275 175 1269 168T1256 156L1619 -193H1167L977 0Q883 -25 770 -25Q462 -25 268 175Q74 377 74 698Q74 1037 271 1248Q467 1458 793 1458ZM784 1180Q615 1180 514 1052Q414 925 414 715Q414 502 514 378T776 254Q943 254 1041 374Q1139 496 1139 709Q1139 931 1044 1056Q950 1180 784 1180Z" horiz-adv-x="1553" unicode="Q"/>
			<glyph d="M164 1434H676Q1198 1434 1198 1044Q1198 969 1175 905T1110 791T1008 703T876 645V641Q908 631 938 608T996 556T1049 491T1096 424L1367 0H996L773 369Q748 411 725 444T678 500T629 536T574 549H487V0H164ZM487 1192V793H627Q731 793 794 853Q858 914 858 1004Q858 1192 633 1192Z" horiz-adv-x="1337" unicode="R"/>
			<glyph d="M655 1458Q767 1458 853 1444T1013 1403V1104Q977 1129 934 1148T847 1179T757 1198T673 1204Q618 1204 573 1193T497 1164T449 1118T432 1059Q432 1023 451 994T505 940T590 890T703 840Q789 804 857 763T975 672T1050 555T1076 403Q1076 283 1030 201T907 69T725 -3T507 -25Q389 -25 282 -5T98 55V375Q185 302 287 265T493 229Q554 229 599 240T675 270T721 316T736 374Q736 416 712 449T646 510T548 564T425 617Q257 687 174 788T92 1032Q92 1144 137 1224T259 1357T439 1433T655 1458Z" horiz-adv-x="1148" unicode="S"/>
			<glyph d="M31 1434H1171V1171H762V0H438V1171H31Z" horiz-adv-x="1200" unicode="T"/>
			<glyph d="M147 1434H471V602Q471 254 743 254Q1010 254 1010 590V1434H1333V621Q1333 -25 731 -25Q147 -25 147 606Z" horiz-adv-x="1481" unicode="U"/>
			<glyph d="M10 1434H358L657 436Q681 355 686 293H692Q699 360 723 440L1020 1434H1358L864 0H498Z" horiz-adv-x="1366" unicode="V"/>
			<glyph d="M18 1434H371L573 479Q586 418 592 315H598Q602 392 627 483L887 1434H1233L1468 471Q1481 418 1491 317H1495Q1499 396 1516 477L1714 1434H2040L1661 0H1303L1065 920Q1046 992 1042 1081H1038Q1029 983 1012 920L768 0H395Z" horiz-adv-x="2058" unicode="W"/>
			<glyph d="M45 1434H438L643 1004Q667 953 686 883H690Q702 925 735 1008L963 1434H1323L893 723L1335 0H952L705 467Q691 493 676 563H672Q665 530 639 463L391 0H6L463 717Z" horiz-adv-x="1342" unicode="X"/>
			<glyph d="M0 1434H369L600 899Q606 884 633 782H637Q650 854 668 895L903 1434H1245L778 510V0H455V504Z" horiz-adv-x="1243" unicode="Y"/>
			<glyph d="M94 1434H1194V1253L475 262H1196V0H41V186L776 1171H94Z" horiz-adv-x="1243" unicode="Z"/>
			<glyph d="M217 1434H686V1233H477V-125H686V-326H217Z" horiz-adv-x="756" unicode="["/>
			<glyph d="M0 1434H281L961 -238H682Z" horiz-adv-x="893" unicode="\"/>
			<glyph d="M70 1434H541V-326H70V-125H281V1233H70Z" horiz-adv-x="756" unicode="]"/>
			<glyph d="M633 1458H795L1249 610H1006L719 1196H715L444 610H203Z" horiz-adv-x="1448" unicode="^"/>
			<glyph d="M0 -178H850V-297H0Z" horiz-adv-x="850" unicode="_"/>
			<glyph d="M55 1509H336L596 1186H369Z" horiz-adv-x="643" unicode="`"/>
			<glyph d="M547 1049Q985 1049 985 612V0H686V147H682Q579 -25 377 -25Q228 -25 142 59T57 285Q57 583 410 629L688 666Q688 834 506 834Q323 834 158 725V963Q224 997 338 1023T547 1049ZM688 485L502 461Q348 441 348 322Q348 268 385 233T487 199Q576 199 632 260T688 416Z" horiz-adv-x="1102" unicode="a"/>
			<glyph d="M133 1516H449V870H453Q570 1049 786 1049Q984 1049 1091 913T1198 541Q1198 285 1073 130T739 -25Q550 -25 453 119H449V0H133ZM664 807Q569 807 506 736T444 551V446Q444 347 501 282T647 217Q755 217 814 300T874 537Q874 664 819 735T664 807Z" horiz-adv-x="1270" unicode="b"/>
			<glyph d="M647 1049Q828 1049 909 1001V733Q810 807 688 807Q552 807 472 727T393 508Q393 372 469 294T678 217Q796 217 909 291V37Q802 -25 600 -25Q364 -25 218 118T72 487Q72 748 228 898T647 1049Z" horiz-adv-x="983" unicode="c"/>
			<glyph d="M819 1516H1135V0H819V141H815Q707 -25 498 -25Q306 -25 189 110T72 489Q72 743 201 896T539 1049Q737 1049 815 907H819ZM616 807Q511 807 452 724T393 498Q393 363 450 290T608 217Q704 217 764 294T825 498V575Q825 675 767 741T616 807Z" horiz-adv-x="1268" unicode="d"/>
			<glyph d="M584 1049Q808 1049 930 916T1053 555V422H385Q401 199 666 199Q835 199 963 279V51Q821 -25 594 -25Q346 -25 209 112T72 496Q72 751 220 900T584 1049ZM582 836Q506 836 450 773T383 616H760Q760 836 582 836Z" horiz-adv-x="1108" unicode="e"/>
			<glyph d="M641 1540Q737 1540 801 1520V1274Q740 1298 684 1298Q532 1298 532 1133V1024H766V791H532V0H217V791H45V1024H217V1151Q217 1326 331 1433T641 1540Z" horiz-adv-x="785" unicode="f"/>
			<glyph d="M537 1049Q724 1049 817 905H821V1024H1137V117Q1137 -168 972 -324T494 -481Q287 -481 166 -422V-156Q324 -248 485 -248Q645 -248 733 -163T821 66V147H817Q709 -25 498 -25Q302 -25 187 113T72 483Q72 743 200 896T537 1049ZM618 807Q513 807 453 725T393 494Q393 366 450 291T606 217Q704 217 764 292T825 492V573Q825 670 767 738T618 807Z" horiz-adv-x="1268" unicode="g"/>
			<glyph d="M133 1516H449V872H453Q569 1049 768 1049Q1116 1049 1116 629V0H801V582Q801 807 637 807Q553 807 501 744T449 584V0H133Z" horiz-adv-x="1233" unicode="h"/>
			<glyph d="M293 1511Q374 1511 424 1466T475 1350Q475 1278 424 1232T293 1186Q213 1186 162 1233T111 1350Q111 1421 162 1466T293 1511ZM133 1024H449V0H133Z" horiz-adv-x="582" unicode="i"/>
			<glyph d="M293 1511Q374 1511 424 1466T475 1350Q475 1278 424 1232T293 1186Q213 1186 162 1233T111 1350Q111 1421 162 1466T293 1511ZM133 1024H449V18Q449 -209 338 -345T18 -481Q-51 -481 -133 -451V-203Q-67 -240 -16 -240Q133 -240 133 -6Z" horiz-adv-x="582" unicode="j"/>
			<glyph d="M133 1516H449V551H453L758 1024H1133L766 543L1159 0H780L453 508H449V0H133Z" horiz-adv-x="1145" unicode="k"/>
			<glyph d="M133 1516H449V0H133Z" horiz-adv-x="582" unicode="l"/>
			<glyph d="M784 1049Q1001 1049 1081 858Q1198 1049 1425 1049Q1759 1049 1759 637V0H1444V584Q1444 807 1280 807Q1202 807 1153 740T1104 573V0H788V590Q788 807 627 807Q546 807 497 743T449 569V0H133V1024H449V864H453Q502 946 590 997T784 1049Z" horiz-adv-x="1876" unicode="m"/>
			<glyph d="M782 1049Q1122 1049 1122 627V0H807V569Q807 807 637 807Q555 807 502 744T449 584V0H133V1024H449V862H453Q566 1049 782 1049Z" horiz-adv-x="1239" unicode="n"/>
			<glyph d="M635 1049Q890 1049 1035 905T1180 526Q1180 271 1030 123T621 -25Q365 -25 218 118T72 508Q72 762 224 905T635 1049ZM629 807Q517 807 455 730T393 512Q393 217 631 217Q858 217 858 520Q858 807 629 807Z" horiz-adv-x="1252" unicode="o"/>
			<glyph d="M782 1049Q981 1049 1089 912T1198 541Q1198 285 1071 130T735 -25Q550 -25 453 119H449V-471H133V1024H449V870H453Q570 1049 782 1049ZM664 807Q567 807 505 733T444 539V457Q444 351 500 284T647 217Q755 217 814 300T874 537Q874 807 664 807Z" horiz-adv-x="1270" unicode="p"/>
			<glyph d="M537 1049Q725 1049 815 905H819V1024H1135V-471H819V141H815Q708 -25 500 -25Q307 -25 189 109T72 487Q72 743 201 896T537 1049ZM618 807Q513 807 453 724T393 496Q393 365 451 291T604 217Q704 217 764 292T825 489V571Q825 671 767 739T618 807Z" horiz-adv-x="1268" unicode="q"/>
			<glyph d="M723 1042Q773 1042 801 1030V739Q744 770 668 770Q565 770 507 694T449 489V0H133V1024H449V834H453Q528 1042 723 1042Z" horiz-adv-x="815" unicode="r"/>
			<glyph d="M514 1049Q582 1049 652 1038T790 1008V764Q730 799 661 816T527 834Q496 834 468 828T420 812T387 785T375 748Q375 720 393 700T440 665T504 639T575 616Q638 594 689 568T776 507T832 425T852 313Q852 222 812 157T707 52T556 -6T379 -25Q210 -25 66 27V283Q144 236 221 213T368 190Q452 190 500 213T549 283Q549 313 527 333T470 368T395 395T316 422Q255 445 208 471T130 533T82 614T66 723Q66 809 103 871T203 972T346 1030T514 1049Z" horiz-adv-x="901" unicode="s"/>
			<glyph d="M522 1335V1024H752V791H522V377Q522 217 649 217Q699 217 752 246V12Q682 -25 541 -25Q207 -25 207 322V791H41V1024H207V1245Z" horiz-adv-x="797" unicode="t"/>
			<glyph d="M117 1024H432V434Q432 217 604 217Q689 217 740 276T791 438V1024H1106V0H791V156H786Q669 -25 473 -25Q117 -25 117 406Z" horiz-adv-x="1239" unicode="u"/>
			<glyph d="M4 1024H342L520 393Q550 286 555 211H559Q566 282 596 387L778 1024H1108L727 0H367Z" horiz-adv-x="1110" unicode="v"/>
			<glyph d="M16 1024H338L479 356Q489 309 494 242H500Q505 312 518 360L694 1024H995L1153 356Q1159 331 1167 240H1174Q1179 298 1190 356L1323 1024H1616L1321 0H989L838 600Q823 660 821 731H815Q808 653 795 604L633 0H305Z" horiz-adv-x="1633" unicode="w"/>
			<glyph d="M29 1024H395L541 737Q570 680 582 641H586Q602 688 629 739L778 1024H1122L784 528L1120 0H756L608 276Q590 309 565 369H561Q546 327 520 279L371 0H8L354 510Z" horiz-adv-x="1131" unicode="x"/>
			<glyph d="M-4 1024H346L537 401Q555 343 565 264H569Q578 322 602 399L795 1024H1108L692 -82Q542 -481 240 -481Q125 -481 51 -455V-203Q114 -240 188 -240Q310 -240 358 -125L412 2Z" horiz-adv-x="1102" unicode="y"/>
			<glyph d="M76 1024H940V868L453 233H944V0H25V131L539 791H76Z" horiz-adv-x="981" unicode="z"/>
			<glyph d="M674 1434V1247Q514 1247 514 1073V860Q514 620 360 557V553Q514 491 514 246V41Q514 -57 551 -98T674 -139V-326Q456 -326 357 -246T258 39V279Q258 463 106 463V647Q258 647 258 838V1061Q258 1267 356 1350T674 1434Z" horiz-adv-x="756" unicode="{"/>
			<glyph d="M209 1567H461V-481H209Z" horiz-adv-x="668" unicode="|"/>
			<glyph d="M84 1434Q302 1434 400 1350T498 1065V836Q498 647 651 647V463Q498 463 498 276V45Q498 -166 400 -246T84 -326V-139Q168 -139 206 -98T244 39V252Q244 491 397 551V555Q244 618 244 868V1073Q244 1247 84 1247Z" horiz-adv-x="756" unicode="}"/>
			<glyph d="M1051 772H1255Q1249 604 1165 506T942 408Q836 408 684 496Q575 559 528 559Q405 559 399 399H195Q201 568 284 666T512 764Q624 764 750 688Q880 610 930 610Q982 610 1015 654T1051 772Z" horiz-adv-x="1448" unicode="~"/>
			<glyph d="" horiz-adv-x="565" unicode=" "/>
			<glyph d="M383 1071L727 731L1069 1071L1208 920L870 586L1210 248L1065 104L727 444L387 104L242 250L582 586L242 926Z" horiz-adv-x="1448" unicode="×"/>
			<glyph d="M616 1049Q754 1049 854 1017T1020 930T1117 797T1149 631V0H900V613Q900 670 882 714T831 788T747 834T616 850Q536 850 488 835T411 795T363 738T342 667H541V513Q514 505 484 492T428 452T386 383T370 274V0H120V257Q120 301 133 341T171 416T235 475T326 513H93V664Q104 751 144 822T250 943T409 1021T616 1049Z" horiz-adv-x="1269" unicode="ก"/>
			<glyph d="M493 1049Q594 1049 672 1024T808 953T898 840T929 692Q879 664 845 634T790 565T761 475T752 357V199H956Q1020 199 1057 231T1094 329V1034H1343V287Q1343 224 1324 171T1267 80T1174 21T1047 0H503V341Q503 425 512 480T541 574T593 639T670 694Q670 730 659 765T623 825T558 867T454 884Q379 884 318 858T234 791Q239 793 246 793T259 794Q301 794 335 780T395 741T434 682T448 605Q448 563 434 528T395 468T335 430T259 416Q205 416 164 435T96 490T54 574T40 682Q40 763 69 830T155 946T296 1022T493 1049ZM259 682Q227 682 204 659T182 605Q182 573 204 550T259 528Q291 528 313 550T336 605Q336 637 313 659T259 682Z" horiz-adv-x="1476" unicode="ข"/>
			<glyph d="M268 570Q236 570 213 547T191 493Q191 461 213 438T268 416Q300 416 322 438T345 493Q345 525 322 547T268 570ZM282 1049L448 874L609 1049Q667 1046 721 1019T828 945T914 832T948 692Q898 664 864 634T809 565T780 475T771 357V199H975Q1039 199 1076 231T1113 329V1034H1362V287Q1362 224 1343 171T1286 80T1193 21T1066 0H522V341Q522 425 531 480T560 574T612 639T689 694Q689 715 684 740T670 786T647 828T602 873L448 704L295 863Q276 839 263 818T241 774T229 726T226 678Q231 680 245 681T268 682Q310 682 344 668T404 629T443 570T457 493Q457 451 443 416T404 356T344 318T268 304Q214 304 172 325T100 384T55 475T40 592Q40 683 59 758T112 890T190 987T282 1049Z" horiz-adv-x="1495" unicode="ฃ"/>
			<glyph d="M628 1049Q758 1049 860 1022T1034 943T1142 812T1179 631V0H930V608Q930 657 915 700T867 775T776 828T628 849Q538 849 479 829T389 779T343 710T328 628Q328 581 338 543T361 463Q375 505 400 538T457 596T526 632T600 645Q644 645 680 631T743 591T783 531T797 455Q797 413 783 378T744 319T685 280T608 266Q548 266 504 292T438 367Q429 355 422 335T410 289T402 235T400 178V0H150V256Q149 305 137 351T113 445T89 548T78 666Q78 759 117 830T229 950T402 1024T628 1049ZM608 532Q576 532 553 509T531 455Q531 423 553 400T608 378Q640 378 662 400T685 455Q685 487 662 509T608 532Z" horiz-adv-x="1299" unicode="ค"/>
			<glyph d="M446 1049L631 889L803 1049Q876 1041 944 1013T1064 936T1147 811T1179 633V0H930V577Q930 616 927 651T915 715T881 775T799 829L631 677L462 827Q414 807 386 779T346 725T331 668T328 606Q328 552 338 505T361 414V413Q375 455 400 488T458 546T526 582T600 595Q644 595 680 581T743 541T783 481T797 405Q797 363 783 328T744 269T685 230T608 216Q548 216 504 243T438 317Q429 305 422 285T410 239T402 185T400 128V0H150V256Q149 304 137 350T113 445T89 548T78 666Q78 758 111 826T196 940T314 1013T446 1049ZM608 482Q576 482 553 459T531 405Q531 373 553 350T608 328Q640 328 662 350T685 405Q685 437 662 459T608 482Z" horiz-adv-x="1299" unicode="ฅ"/>
			<glyph d="M583 278Q480 268 480 182Q480 148 494 131T530 114Q556 114 569 130T583 189ZM282 1049L459 914L609 1049Q667 1046 721 1020T828 951T915 846T949 712Q916 689 894 670T858 629T838 579T832 511V426Q925 418 981 397T1085 354T1174 305T1244 248V1034H1493V0H1234Q1206 46 1165 89T1077 169T975 236T832 274V240Q832 117 768 50T579 -16Q462 -16 398 38T335 198Q335 253 354 294T408 364T487 408T583 428V511Q583 547 587 574T603 623T636 667T690 714Q690 735 685 760T674 808T653 851T611 893L457 760L305 879Q263 850 247 817T226 758Q231 760 245 761T268 762Q310 762 344 748T404 709T443 650T457 573Q457 531 443 496T404 436T344 398T268 384Q214 384 172 403T100 456T55 539T40 645Q40 728 59 794T112 910T190 994T282 1049ZM268 650Q236 650 213 627T191 573Q191 541 213 518T268 496Q300 496 322 518T345 573Q345 605 322 627T268 650Z" horiz-adv-x="1626" unicode="ฆ"/>
			<glyph d="M570 937Q538 937 515 914T493 860Q493 828 515 805T570 783Q602 783 624 805T647 860Q647 892 624 914T570 937ZM590 1049Q802 1049 802 798V0H549L20 487V709L552 225V674Q516 677 485 691T430 729T394 786T381 860Q381 906 396 941T439 1001T505 1037T590 1049Z" horiz-adv-x="935" unicode="ง"/>
			<glyph d="M504 1049Q783 1049 924 942T1065 631V0H801L538 286Q514 257 479 239T389 221Q349 221 314 235T253 275T213 335T198 408Q198 455 213 490T254 549T318 585T398 597Q432 597 460 588T513 565T559 531T600 490L816 252V628Q816 686 796 728T741 797T654 836T504 849Q445 849 380 839T254 813T136 773T40 724V954Q81 979 133 997T244 1026T369 1043T504 1049ZM387 485Q355 485 332 462T310 408Q310 376 332 353T387 331Q419 331 441 353T464 408Q464 440 441 462T387 485Z" horiz-adv-x="1185" unicode="จ"/>
			<glyph d="M579 1049Q858 1049 999 942T1140 631V428Q1191 424 1236 408T1315 364T1368 294T1388 198Q1388 92 1324 38T1126 -16Q1018 -16 954 50T891 240V274Q816 263 763 244T653 186T547 97T471 0H211V260L203 261Q169 265 139 280T87 319T52 375T40 446Q40 493 55 528T98 587T164 623T249 635Q337 635 399 578T461 404V228Q490 258 549 298T655 361T755 399T891 426V628Q891 686 871 728T816 797T729 836T579 849Q520 849 455 839T329 813T211 773T115 724V954Q156 979 208 997T319 1026T444 1043T579 1049ZM1140 278V189Q1140 148 1153 131T1193 114Q1215 114 1229 131T1243 182Q1243 267 1140 278ZM229 523Q197 523 174 500T152 446Q152 414 174 391T229 369Q261 369 283 391T306 446Q306 478 283 500T229 523Z" horiz-adv-x="1431" unicode="ฉ"/>
			<glyph d="M259 682Q227 682 204 659T182 605Q182 573 204 550T259 528Q291 528 313 550T336 605Q336 637 313 659T259 682ZM1178 1108H1433Q1427 1037 1413 984T1374 891T1307 817T1206 756Q1232 749 1257 731T1301 684T1331 617T1343 531V287Q1343 224 1324 171T1267 80T1174 21T1047 0H503V341Q503 425 512 480T541 574T593 639T670 694Q670 730 660 762T625 821T561 865T461 884Q383 884 321 855T234 791Q239 793 246 793T259 794Q301 794 335 780T395 741T434 682T448 605Q448 563 434 528T395 468T335 430T259 416Q205 416 164 435T96 490T54 574T40 682Q40 763 69 830T155 946T296 1022T493 1049Q581 1049 665 1024T808 953T898 840T929 692Q879 664 845 634T790 565T761 475T752 357V199H956Q1020 199 1057 231T1094 329V531Q1094 569 1090 596T1077 643T1053 675T1018 696V817Q1074 840 1104 867T1149 930T1168 1008T1178 1108Z" horiz-adv-x="1536" unicode="ช"/>
			<glyph d="M1177 1108H1432Q1426 1037 1412 987T1373 900T1306 834T1205 776Q1231 769 1256 751T1300 704T1330 637T1342 551V287Q1342 224 1323 171T1266 80T1173 21T1046 0H522V341Q522 425 531 480T560 574T612 639T689 694Q689 715 684 740T672 790T651 835T606 883L448 714L295 873Q266 843 255 820T238 774T228 726T226 678Q231 680 245 681T268 682Q310 682 344 668T404 629T443 570T457 493Q457 451 443 416T404 356T344 318T268 304Q214 304 172 325T100 384T55 475T40 592Q40 683 59 758T112 890T190 987T282 1049L448 874L609 1049Q667 1046 721 1017T828 941T914 830T948 692Q898 664 864 634T809 565T780 475T771 357V199H955Q1019 199 1056 231T1093 329V551Q1093 589 1089 616T1076 663T1052 695T1017 716V837Q1073 860 1103 884T1148 940T1167 1011T1177 1108ZM268 570Q236 570 213 547T191 493Q191 461 213 438T268 416Q300 416 322 438T345 493Q345 525 322 547T268 570Z" horiz-adv-x="1475" unicode="ซ"/>
			<glyph d="M352 250Q320 250 297 227T275 173Q275 141 297 118T352 96Q384 96 406 118T429 173Q429 205 406 227T352 250ZM626 1049Q746 1049 848 1017T1017 930T1118 797T1151 631V426Q1246 417 1300 399T1403 358T1493 306T1563 248V1034H1812V0H1553Q1525 46 1484 91T1395 174T1290 238T1151 274V240Q1151 117 1087 50T898 -16Q782 -16 718 38T654 198Q654 253 673 294T727 364T806 408T902 428V613Q902 666 883 707T832 780T749 831T626 850Q487 850 421 796T342 667H541V513Q517 509 487 501T431 477T387 432T370 359Q402 356 432 343T487 308T526 251T541 173Q541 80 483 32T333 -16Q243 -16 181 40T120 215V257Q120 301 133 341T171 416T235 475T326 513H93V664Q105 751 146 822T255 944T416 1021T626 1049ZM902 278Q799 267 799 182Q799 148 813 131T849 114Q875 114 888 131T902 189Z" horiz-adv-x="1945" unicode="ฌ"/>
			<glyph d="M1650 -27V-211Q1610 -255 1559 -293T1447 -360T1313 -406T1156 -423Q1091 -423 1043 -408T963 -368T917 -308T902 -233Q902 -194 915 -161T953 -104T1010 -66T1082 -53Q1121 -53 1154 -66T1211 -104T1249 -161T1263 -233Q1263 -248 1258 -270T1242 -307Q1374 -279 1472 -210T1650 -27ZM1083 -162Q1053 -162 1032 -182T1011 -232Q1011 -262 1032 -283T1083 -305Q1112 -305 1133 -283T1154 -232Q1154 -203 1133 -182T1083 -162ZM352 250Q320 250 297 227T275 173Q275 141 297 118T352 96Q384 96 406 118T429 173Q429 205 406 227T352 250ZM606 1049Q726 1049 824 1017T987 930T1081 797T1111 631V199H1325Q1389 199 1426 231T1463 329V1034H1712V287Q1712 224 1693 171T1636 80T1543 21T1416 0H862V608Q862 721 798 785T606 850Q521 850 474 831T401 788T361 732T342 667H541V513Q517 509 487 501T431 477T387 432T370 359Q402 356 432 343T487 308T526 251T541 173Q541 80 483 32T333 -16Q243 -16 181 40T120 215V257Q120 301 133 341T171 416T235 475T326 513H93V664Q105 751 143 822T245 944T400 1021T606 1049Z" horiz-adv-x="1845" unicode="ญ"/>
			<glyph d="M695 1049Q829 1049 926 1017T1088 930T1182 797T1213 631V-410H949Q899 -327 829 -278T688 -212Q682 -245 664 -278T619 -339T554 -383T469 -401Q434 -401 404 -390T353 -360T319 -312T307 -246Q307 -165 363 -119T528 -73Q542 -73 562 -75T590 -79Q598 -37 618 -6T667 38H820Q769 20 741 -16T703 -97Q781 -114 850 -150T964 -232V608Q964 665 946 708T899 782T822 831T695 850Q619 850 572 832T499 789T457 733T436 667H635V513Q611 509 581 501T525 477T481 432T464 359V215Q464 97 402 40T252 -16Q205 -16 167 -4T101 32T58 91T43 173Q43 256 91 303T214 359Q219 386 232 408T270 450T331 484T420 513H187V664Q199 751 237 822T340 944T493 1021T695 1049ZM232 250Q200 250 177 227T155 173Q155 141 177 118T232 96Q264 96 286 118T309 173Q309 205 286 227T232 250ZM529 -183Q472 -183 447 -201T422 -246Q422 -266 434 -278T469 -291Q511 -291 539 -264T576 -188Q556 -183 529 -183Z" horiz-adv-x="1333" unicode="ฎ"/>
			<glyph d="M447 -156Q405 -156 378 -175T351 -233Q351 -256 365 -271T402 -286Q427 -286 444 -276T472 -249T489 -209T498 -162Q492 -160 476 -158T447 -156ZM695 1049Q829 1049 926 1017T1088 930T1182 797T1213 631V-410H965Q960 -385 952 -360T934 -316T906 -285T867 -273Q843 -273 828 -286T804 -319T791 -359T785 -393H693Q679 -310 659 -262T606 -198Q601 -240 585 -276T544 -339T482 -381T402 -396Q366 -396 335 -384T283 -351T248 -300T236 -233Q236 -186 254 -151T301 -92T368 -57T446 -46Q453 -46 462 -46T482 -48T500 -50T513 -53Q530 21 578 69T686 143H866Q830 130 792 111T720 64T662 0T628 -84Q644 -90 661 -101T695 -131T724 -174T746 -232Q768 -187 799 -171T865 -155Q893 -155 920 -168T965 -205V608Q964 665 946 706T898 780T819 831T695 850Q621 850 573 832T498 788T456 732T436 667H635V513Q611 509 581 501T525 477T481 432T464 359V215Q464 97 402 40T252 -16Q206 -16 167 -4T101 32T58 91T43 173Q43 256 91 303T214 359Q219 386 232 408T270 450T331 484T420 513H187V664Q199 751 237 822T340 944T494 1021T695 1049ZM232 250Q200 250 177 227T155 173Q155 141 177 118T232 96Q264 96 286 118T309 173Q309 205 286 227T232 250Z" horiz-adv-x="1333" unicode="ฏ"/>
			<glyph d="M478 1049Q511 1049 556 1046T651 1040T748 1034T833 1031Q899 1031 954 1033T1042 1041V876Q1007 871 958 869T840 868Q804 868 752 871T647 877T549 883T479 886Q430 886 402 876T354 841T328 790T322 737Q351 741 400 745T504 750Q643 750 741 737T903 690T995 586T1025 416V377Q1025 275 1008 201T947 80T825 9T626 -14Q504 -14 427 -2T306 28T242 73T214 128L203 129Q174 132 145 144T94 180T57 237T43 315Q43 406 100 454T251 503Q344 503 404 444T464 286V258Q464 245 468 232T486 209T522 192T617 186Q692 186 716 194T754 222T771 277T776 363V404Q776 453 765 486T724 544T649 577T504 586Q385 586 281 580T93 561V697Q92 779 113 844T181 955T301 1025T478 1049ZM232 391Q200 391 177 368T155 314Q155 282 177 259T232 237Q264 237 286 259T309 314Q309 346 286 368T232 391ZM879 -32Q938 -32 970 -65T1002 -149V-410H852L728 -356L623 -410H534Q521 -344 501 -306T456 -247Q450 -280 433 -309T391 -361T328 -397T244 -410Q209 -410 179 -399T128 -369T94 -321T82 -255Q82 -174 139 -128T303 -82Q317 -82 337 -84T365 -88Q369 -76 374 -65T392 -43H526Q507 -55 494 -79T476 -126Q524 -148 560 -194T617 -304L728 -250L877 -315V-258H871Q847 -258 826 -249T790 -225T766 -189T758 -144Q758 -122 766 -102T789 -66T827 -41T879 -32ZM304 -192Q247 -192 222 -210T197 -255Q197 -275 209 -287T244 -300Q285 -300 313 -273T351 -197Q333 -192 304 -192ZM871 -103Q854 -103 842 -115T830 -144Q830 -161 842 -173T871 -185Q888 -185 900 -173T912 -144Q912 -127 900 -115T871 -103Z" horiz-adv-x="1140" unicode="ฐ"/>
			<glyph d="M282 1049L448 874L609 1049Q660 1046 718 1017T828 941T914 830T948 692Q898 664 864 634T809 565T780 475T771 357V265L1196 1034H1405Q1442 1034 1477 1023T1538 991T1581 937T1597 859V0H1348V768Q1348 803 1334 820T1287 837L819 0H522V341Q522 425 531 480T560 574T612 639T689 694Q689 715 684 740T671 790T649 835T601 883L448 714L295 873Q266 839 255 818T238 774T228 726T226 678Q231 680 245 681T268 682Q310 682 344 668T404 629T443 570T457 493Q457 451 443 416T404 356T344 318T268 304Q214 304 172 325T100 384T55 475T40 592Q40 683 59 758T112 890T190 987T282 1049ZM268 570Q236 570 213 547T191 493Q191 461 213 438T268 416Q300 416 322 438T345 493Q345 525 322 547T268 570Z" horiz-adv-x="1730" unicode="ฑ"/>
			<glyph d="M1033 274Q992 266 971 245T950 182Q950 148 961 131T990 114Q1011 114 1022 131T1033 189ZM941 1049Q996 1041 1061 1013T1176 936T1253 811T1282 633V426Q1385 412 1436 394T1535 354T1624 305T1694 248V1034H1943V0H1684Q1656 46 1615 88T1529 164T1431 224T1282 264V240Q1282 117 1217 50T1050 -16Q922 -16 863 36T805 183Q805 234 826 274T880 344T953 391T1033 418V577Q1033 616 1030 656T1016 731T985 799T912 856L697 728L460 856Q406 827 381 796T346 737T332 673T328 606Q328 562 339 511T364 409T389 311T400 229V217Q420 229 440 243T479 272T512 304T534 336Q487 358 460 402T433 506Q433 548 447 583T486 642T545 681T622 695Q664 695 698 681T758 641T798 578T812 498Q812 449 792 399T740 303T664 212T576 129T484 57T400 0H150V208Q150 259 139 315T114 429T89 547T78 666Q78 758 111 825T196 938T314 1009T446 1044L697 905ZM622 583Q590 583 567 560T545 506Q545 474 567 451T622 429Q654 429 676 451T699 506Q699 538 676 560T622 583Z" horiz-adv-x="2076" unicode="ฒ"/>
			<glyph d="M1772 278V189Q1772 148 1785 131T1825 114Q1847 114 1861 131T1875 182Q1875 267 1772 278ZM606 1049Q726 1049 824 1017T987 930T1081 797T1111 631V248Q1140 278 1181 306T1269 358T1372 400T1523 426V1034H1772V428Q1823 424 1868 408T1947 364T2000 294T2020 198Q2020 92 1956 38T1758 -16Q1650 -16 1586 50T1523 240V274Q1437 269 1381 240T1278 174T1190 91T1121 0H861V608Q861 721 793 785T606 850Q536 850 486 832T408 788T363 732T342 667H541V513Q517 509 487 501T431 477T387 432T370 359L378 358Q413 354 442 339T494 300T528 244T541 173Q541 127 526 91T483 32T417 -4T332 -16Q244 -16 182 40T120 215V257Q120 301 133 341T171 416T235 475T326 513H93V664Q105 751 143 822T245 944T400 1021T606 1049ZM352 250Q320 250 297 227T275 173Q275 141 297 118T352 96Q384 96 406 118T429 173Q429 205 406 227T352 250Z" horiz-adv-x="2086" unicode="ณ"/>
			<glyph d="M628 1049Q757 1049 859 1023T1032 945T1141 814T1179 631V0H930V611Q930 655 917 694T876 767T790 825T628 850Q528 850 471 826T386 771T343 703T328 625Q328 567 339 514T364 409T389 307T400 204V192Q442 221 471 248T515 307Q468 329 441 373T414 477Q414 519 428 554T467 613T526 652T603 666Q645 666 679 652T739 612T779 549T793 469Q793 413 774 363T725 270T655 187T571 115T483 53T400 0H150V194Q150 262 139 320T114 433T89 545T78 666Q78 759 117 830T229 950T402 1024T628 1049ZM603 554Q571 554 548 531T526 477Q526 445 548 422T603 400Q635 400 657 422T680 477Q680 509 657 531T603 554Z" horiz-adv-x="1299" unicode="ด"/>
			<glyph d="M446 1044L631 899L803 1042Q876 1034 944 1007T1064 932T1147 809T1179 633V0H930V577Q930 616 927 653T913 723T875 786T794 842L631 707L464 842Q417 821 388 791T347 732T332 671T328 606Q328 562 339 510T364 406T389 301T400 204V192Q442 221 471 248T515 307Q468 329 441 373T414 477Q414 519 428 554T467 613T526 652T603 666Q645 666 679 652T739 612T779 549T793 469Q793 413 774 363T725 270T655 187T571 115T483 53T400 0H150V208Q150 259 139 315T114 429T89 547T78 666Q78 758 111 825T196 938T314 1009T446 1044ZM603 554Q571 554 548 531T526 477Q526 445 548 422T603 400Q635 400 657 422T680 477Q680 509 657 531T603 554Z" horiz-adv-x="1299" unicode="ต"/>
			<glyph d="M616 1049Q754 1049 854 1017T1020 930T1117 797T1149 631V0H900V608Q900 665 882 706T832 780T751 831T616 850Q533 850 482 831T407 787T364 732T342 667H541V513Q517 509 487 501T431 477T387 432T370 359L378 358Q413 354 442 339T494 300T528 244T541 173Q541 127 526 91T483 32T417 -4T332 -16Q244 -16 182 40T120 215V257Q120 301 133 341T171 416T235 475T326 513H93V664Q105 751 144 822T250 944T408 1021T616 1049ZM352 250Q320 250 297 227T275 173Q275 141 297 118T352 96Q384 96 406 118T429 173Q429 205 406 227T352 250Z" horiz-adv-x="1269" unicode="ถ"/>
			<glyph d="M252 1049Q340 1049 402 992T464 818V287L897 1034H1106Q1144 1034 1178 1023T1239 991T1282 937T1298 859V0H1049V778Q1049 803 1035 820T987 837L494 0H214V674L206 675Q172 679 142 694T90 733T55 789T43 860Q43 907 58 942T101 1001T167 1037T252 1049ZM232 937Q200 937 177 914T155 860Q155 828 177 805T232 783Q264 783 286 805T309 860Q309 892 286 914T232 937Z" horiz-adv-x="1431" unicode="ท"/>
			<glyph d="M506 1049Q539 1049 584 1046T679 1040T776 1034T861 1031Q927 1031 982 1033T1070 1041V876Q1035 871 986 869T868 868Q832 868 780 871T675 877T577 883T507 886Q415 886 382 843T350 737Q379 741 418 744T532 748Q671 748 769 735T931 688T1023 594T1053 434V285Q1053 216 1031 163T971 73T878 18T759 0H130V464H379V199H663Q738 199 771 236T804 333V405Q804 454 793 487T751 545T674 579T532 588Q413 588 309 582T121 563V697Q120 779 141 844T209 955T329 1025T506 1049Z" horiz-adv-x="1155" unicode="ธ"/>
			<glyph d="M252 1049Q340 1049 402 992T464 818V248Q493 278 532 307T620 357T728 398T894 426V1034H1143V428Q1194 424 1239 408T1318 364T1371 294T1391 198Q1391 92 1327 38T1129 -16Q1021 -16 957 50T894 240V274Q805 266 740 237T628 173T541 91T474 0H214V674L206 675Q172 679 142 694T90 733T55 789T43 860Q43 907 58 942T101 1001T167 1037T252 1049ZM1143 278V189Q1143 148 1156 131T1196 114Q1218 114 1232 131T1246 182Q1246 267 1143 278ZM232 937Q200 937 177 914T155 860Q155 828 177 805T232 783Q264 783 286 805T309 860Q309 892 286 914T232 937Z" horiz-adv-x="1434" unicode="น"/>
			<glyph d="M252 1049Q340 1049 402 992T464 818V199H732Q796 199 833 231T870 329V1034H1119V287Q1119 224 1100 171T1043 80T950 21T823 0H214V674L206 675Q172 679 142 694T90 733T55 789T43 860Q43 907 58 942T101 1001T167 1037T252 1049ZM232 937Q200 937 177 914T155 860Q155 828 177 805T232 783Q264 783 286 805T309 860Q309 892 286 914T232 937Z" horiz-adv-x="1252" unicode="บ"/>
			<glyph d="M870 1434H1119V287Q1119 224 1100 171T1043 80T950 21T823 0H214V674L206 675Q172 679 142 694T90 733T55 789T43 860Q43 907 58 942T101 1001T167 1037T252 1049Q340 1049 402 992T464 818V199H732Q796 199 833 231T870 329ZM232 937Q200 937 177 914T155 860Q155 828 177 805T232 783Q264 783 286 805T309 860Q309 892 286 914T232 937Z" horiz-adv-x="1252" unicode="ป"/>
			<glyph d="M345 1049Q392 1049 430 1037T496 1001T539 942T554 860Q554 821 541 789T507 733T455 694T391 675L383 674V239L688 605L1015 239V1034H1264V0H1030L688 373L368 0H133V818Q133 936 195 992T345 1049ZM365 937Q333 937 310 914T288 860Q288 828 310 805T365 783Q397 783 419 805T442 860Q442 892 419 914T365 937Z" horiz-adv-x="1397" unicode="ผ"/>
			<glyph d="M1015 1433H1264V0H1030L688 373L368 0H133V818Q133 936 195 992T345 1049Q392 1049 430 1037T496 1001T539 942T554 860Q554 821 541 789T507 733T455 694T391 675L383 674V244L688 605L1015 244ZM365 937Q333 937 310 914T288 860Q288 828 310 805T365 783Q397 783 419 805T442 860Q442 892 419 914T365 937Z" horiz-adv-x="1397" unicode="ฝ"/>
			<glyph d="M252 1049Q340 1049 402 992T464 818V210Q470 236 478 269T495 335T514 396T530 437L767 1024H902L1136 437Q1141 424 1151 396T1171 335T1188 268T1202 209V1034H1451V0H1139L902 570Q894 595 879 632T855 705Q844 746 833 791Q822 746 811 704Q801 668 786 630T764 569L527 0H214V674L206 675Q172 679 142 694T90 733T55 789T43 860Q43 907 58 942T101 1001T167 1037T252 1049ZM232 937Q200 937 177 914T155 860Q155 828 177 805T232 783Q264 783 286 805T309 860Q309 892 286 914T232 937Z" horiz-adv-x="1584" unicode="พ"/>
			<glyph d="M1202 1434H1451V0H1139L902 570Q894 595 879 632T855 705Q844 746 833 791Q822 746 811 704Q801 668 786 630T764 569L527 0H214V674L206 675Q172 679 142 694T90 733T55 789T43 860Q43 907 58 942T101 1001T167 1037T252 1049Q340 1049 402 992T464 818V210Q470 236 478 269T495 335T514 396T530 437L767 1024H902L1136 437Q1141 424 1151 396T1171 335T1188 268T1202 209ZM232 937Q200 937 177 914T155 860Q155 828 177 805T232 783Q264 783 286 805T309 860Q309 892 286 914T232 937Z" horiz-adv-x="1584" unicode="ฟ"/>
			<glyph d="M689 1049Q823 1049 920 1017T1082 930T1176 797T1207 631V0H958V608Q958 665 940 706T895 778T816 829T689 850Q615 850 566 831T493 787T451 732T430 667H629V513Q605 509 576 501T522 477T481 432T464 359V215Q464 103 405 43T252 -16Q206 -16 167 -4T101 32T58 91T43 173Q43 214 56 247T93 304T147 342T214 359Q219 386 231 408T267 450T326 484T414 513H181V664Q193 751 231 822T334 944T488 1021T689 1049ZM232 250Q200 250 177 227T155 173Q155 141 177 118T232 96Q264 96 286 118T309 173Q309 205 286 227T232 250Z" horiz-adv-x="1340" unicode="ภ"/>
			<glyph d="M328 1049Q416 1049 478 992T540 818V426Q594 423 677 400T810 353T900 304T970 248V1034H1219V0H960Q932 46 891 88T801 169T671 239T540 274V240Q540 117 476 50T305 -16Q171 -16 107 38T43 198Q43 253 62 294T116 364T195 408T291 428V674L282 675Q248 679 218 694T166 733T131 789T119 860Q119 907 134 942T177 1001T243 1037T328 1049ZM308 937Q276 937 253 914T231 860Q231 828 253 805T308 783Q340 783 362 805T385 860Q385 892 362 914T308 937ZM291 278Q188 267 188 182Q188 148 202 131T238 114Q264 114 277 131T291 189Z" horiz-adv-x="1352" unicode="ม"/>
			<glyph d="M365 937Q333 937 310 914T288 860Q288 828 310 805T365 783Q397 783 419 805T442 860Q442 892 419 914T365 937ZM345 1049Q392 1049 430 1037T496 1001T539 942T554 860Q554 821 541 789T507 733T455 694T391 675L383 674Q383 638 401 615T444 579T498 559T547 548V427Q526 423 498 416T444 396T400 357T382 291V200H709Q773 199 810 231T847 329V1034H1096V287Q1096 224 1077 171T1020 80T927 21T800 0H133V293Q133 340 146 373T180 430T227 466T278 487Q253 494 227 508T180 545T146 601T133 682V818Q133 936 195 992T345 1049Z" horiz-adv-x="1229" unicode="ย"/>
			<glyph d="M452 1049Q485 1049 530 1046T625 1040T722 1034T807 1031Q873 1031 928 1033T1016 1041V866Q981 861 932 859T814 858Q778 858 726 861T621 867T523 873T453 876Q384 876 361 866T323 840T302 800T296 718Q325 722 364 725T478 728Q589 728 669 712T800 660T875 562T899 407V215Q899 103 840 43T687 -16Q641 -16 602 -4T536 32T493 91T478 173Q478 214 491 247T528 304T583 342T650 359V414Q650 446 640 471T604 517T536 547T390 558Q303 558 227 552T67 533V677Q66 768 87 837T155 954T275 1025T452 1049ZM667 250Q635 250 612 227T590 173Q590 141 612 118T667 96Q699 96 721 118T744 173Q744 205 721 227T667 250Z" horiz-adv-x="1056" unicode="ร"/>
			<glyph d="M616 1049Q754 1049 854 1017T1020 930T1117 797T1149 631V-410H900V608Q900 665 883 709T827 788T729 836T616 850Q546 850 496 834T412 791T363 733T342 667H541V513Q517 509 487 501T431 477T387 432T370 359L378 358Q413 354 442 339T494 300T528 244T541 173Q541 127 526 91T483 32T417 -4T332 -16Q244 -16 182 40T120 215V257Q120 301 133 341T171 416T235 475T326 513H93V664Q105 751 144 822T250 944T408 1021T616 1049ZM352 250Q320 250 297 227T275 173Q275 141 297 118T352 96Q384 96 406 118T429 173Q429 205 406 227T352 250Z" horiz-adv-x="1269" unicode="ฤ"/>
			<glyph d="M584 1049Q863 1049 1004 942T1145 631V0H895V207Q895 263 876 312T819 402T719 470T563 499Q459 499 414 460T370 373V359L378 358Q413 354 442 339T494 300T528 244T541 173Q541 127 526 91T483 32T417 -4T332 -16Q244 -16 182 40T120 215V349Q120 495 216 576T506 657Q594 657 660 641T770 600T844 540T893 468H896V628Q896 686 876 728T820 797T733 836T584 849Q525 849 460 839T334 813T216 773T120 724V954Q161 979 213 997T324 1026T449 1043T584 1049ZM352 250Q320 250 297 227T275 173Q275 141 297 118T352 96Q384 96 406 118T429 173Q429 205 406 227T352 250Z" horiz-adv-x="1278" unicode="ล"/>
			<glyph d="M689 1049Q823 1049 920 1017T1082 930T1176 797T1207 631V-410H958V608Q958 665 940 706T892 780T814 831T689 850Q613 850 568 833T496 789T451 732T430 667H629V513Q605 509 576 501T522 477T481 432T464 359V215Q464 103 405 43T252 -16Q206 -16 167 -4T101 32T58 91T43 173Q43 214 56 247T93 304T147 342T214 359Q219 386 231 408T267 450T326 484T414 513H181V664Q193 751 231 822T334 944T488 1021T689 1049ZM232 250Q200 250 177 227T155 173Q155 141 177 118T232 96Q264 96 286 118T309 173Q309 205 286 227T232 250Z" horiz-adv-x="1327" unicode="ฦ"/>
			<glyph d="M446 1049Q710 1049 837 942T965 631V215Q965 103 906 43T753 -16Q707 -16 668 -4T602 32T559 91T544 173Q544 214 557 247T594 304T649 342T716 359V618Q716 735 649 792T446 849Q395 849 338 839T227 813T124 773T40 724V954Q74 979 120 997T220 1026T332 1043T446 1049ZM733 250Q701 250 678 227T656 173Q656 141 678 118T733 96Q765 96 787 118T810 173Q810 205 787 227T733 250Z" horiz-adv-x="1085" unicode="ว"/>
			<glyph d="M942 1136H1186Q1178 1107 1162 1076T1127 1018T1087 968T1050 931Q1116 879 1147 800T1179 631V0H930V608Q930 626 927 647T918 687T900 726T856 769Q835 753 820 743T787 722T749 699T712 679H491Q512 694 538 713T590 751T640 790T701 843Q670 848 655 848T628 849Q532 849 474 825T387 773T343 708T328 628Q328 604 331 575T339 518T349 461T361 413Q375 455 400 488T458 546T526 582T600 595Q644 595 680 581T743 541T783 481T797 405Q797 363 783 328T744 269T685 230T608 216Q548 216 504 243T438 317Q429 305 422 285T410 239T402 185T400 128V0H150V256Q149 305 137 351T113 445T89 548T78 666Q78 759 117 830T229 950T402 1024T628 1049Q695 1049 759 1040T875 1019Q881 1028 890 1041T908 1071T927 1103T942 1136ZM608 482Q576 482 553 459T531 405Q531 373 553 350T608 328Q640 328 662 350T685 405Q685 437 662 459T608 482Z" horiz-adv-x="1299" unicode="ศ"/>
			<glyph d="M252 1049Q340 1049 402 992T464 818V199H832Q896 199 933 231T970 329V424Q889 401 803 401Q742 401 696 418T622 463T578 526T564 599Q564 643 578 679T617 742T677 782T754 796Q796 796 830 782T890 743T929 684T943 607Q943 593 940 575T935 550Q943 553 951 556T970 565V1034H1219V727Q1264 766 1302 808T1366 897V680Q1353 663 1315 625T1219 544V287Q1219 224 1200 171T1143 80T1050 21T923 0H214V674L206 675Q172 679 142 694T90 733T55 789T43 860Q43 907 58 942T101 1001T167 1037T252 1049ZM232 937Q200 937 177 914T155 860Q155 828 177 805T232 783Q264 783 286 805T309 860Q309 892 286 914T232 937ZM754 684Q722 684 699 661T677 607Q677 575 699 552T754 530Q786 530 808 552T831 607Q831 639 808 661T754 684Z" horiz-adv-x="1407" unicode="ษ"/>
			<glyph d="M942 1136H1186Q1157 1064 1119 1012T1032 918Q1086 871 1115 799T1145 631V0H896V184Q896 246 878 299T821 395T716 467T577 497Q464 497 417 459T370 373V359L378 358Q413 354 442 339T494 300T528 244T541 173Q541 127 526 91T483 32T417 -4T332 -16Q244 -16 182 40T120 215V349Q120 495 216 576T506 657Q607 657 666 640T770 599T844 538T893 464H896V622Q896 686 868 728T817 782Q800 771 787 764T760 749T732 733T706 721H492Q509 730 533 745T582 776T632 809T674 839Q668 841 657 843T633 846T607 848T584 849Q525 849 460 839T334 813T216 773T120 724V954Q161 979 213 997T324 1026T449 1043T584 1049Q619 1049 656 1046T729 1039T799 1028T857 1013Q869 1024 881 1040T906 1074T927 1107T942 1136ZM352 250Q320 250 297 227T275 173Q275 141 297 118T352 96Q384 96 406 118T429 173Q429 205 406 227T352 250Z" horiz-adv-x="1278" unicode="ส"/>
			<glyph d="M986 935Q963 935 942 920T922 875Q922 846 943 822T989 787Q999 793 1009 801T1029 819T1043 842T1049 870Q1049 887 1043 899T1028 920T1008 931T986 935ZM252 1049Q340 1049 402 992T464 818V344Q514 400 570 454T671 546T766 622T871 700Q856 714 838 733T806 775T781 824T772 881Q772 958 831 1003T986 1049Q1041 1049 1087 1037T1166 1004T1218 951T1237 879Q1237 852 1229 828T1208 784T1178 747T1144 715Q1179 696 1201 669T1237 611T1255 541T1261 463V0H1012V457Q1012 505 1007 539T975 604Q938 578 885 533T781 443T681 347T572 224T489 102T464 13V0H214V674L206 675Q172 679 142 694T90 733T55 789T43 860Q43 907 58 942T101 1001T167 1037T252 1049ZM232 937Q200 937 177 914T155 860Q155 828 177 805T232 783Q264 783 286 805T309 860Q309 892 286 914T232 937Z" horiz-adv-x="1386" unicode="ห"/>
			<glyph d="M1620 1349V1111Q1582 1071 1538 1038T1450 980V0H1139L900 610Q892 634 880 665T858 731T840 791T833 820Q832 817 825 791T808 730T785 663T766 609L527 0H214V674L206 675Q172 679 142 694T90 733T55 789T43 860Q43 907 58 942T101 1001T167 1037T252 1049Q340 1049 402 992T464 818V210Q470 236 478 264T495 322T509 365T525 407L767 1024H902L1141 418Q1146 405 1154 383T1171 331T1188 273T1202 220V909L1192 910Q1158 913 1128 928T1076 967T1041 1023T1029 1095Q1029 1142 1044 1177T1087 1236T1153 1272T1238 1284Q1297 1284 1348 1243T1423 1136Q1448 1156 1474 1181T1527 1234T1577 1291T1620 1349ZM1218 1172Q1186 1172 1163 1149T1141 1095Q1141 1063 1163 1040T1218 1018Q1250 1018 1272 1040T1295 1095Q1295 1127 1272 1149T1218 1172ZM232 937Q200 937 177 914T155 860Q155 828 177 805T232 783Q264 783 286 805T309 860Q309 892 286 914T232 937Z" horiz-adv-x="1630" unicode="ฬ"/>
			<glyph d="M534 1049Q813 1049 954 942T1095 631V404Q1095 300 1067 222T979 91T823 12T592 -14Q455 -14 364 10T219 77T142 178T120 304V414Q120 532 182 588T332 645Q379 645 417 633T483 597T526 538T541 456Q541 417 528 384T493 328T441 289T377 270L370 269Q371 232 422 209T592 186Q665 186 707 199T779 235T827 301T846 398V597Q846 672 822 719T763 793T670 834T534 849Q475 849 410 839T284 813T166 773T70 724V954Q111 979 163 997T274 1026T399 1043T534 1049ZM352 533Q320 533 297 510T275 456Q275 424 297 401T352 379Q384 379 406 401T429 456Q429 488 406 510T352 533Z" horiz-adv-x="1205" unicode="อ"/>
			<glyph d="M330 533Q298 533 275 510T253 456Q253 424 275 401T330 379Q362 379 384 401T407 456Q407 488 384 510T330 533ZM546 919Q429 919 379 903T329 864Q329 840 373 826T527 812Q640 812 697 820T795 838Q778 868 716 893T546 919ZM551 1049Q653 1049 728 1039T857 1011T949 965T1011 904Q1050 929 1089 963T1164 1035V849Q1136 823 1114 806T1061 771Q1065 758 1067 740T1070 703T1072 662T1073 621V394Q1073 290 1045 213T957 86T801 11T570 -14Q433 -14 342 10T197 77T120 178T98 304V414Q98 532 160 588T310 645Q357 645 395 633T461 597T504 538T519 456Q519 417 506 384T471 328T419 289T355 270L348 269Q349 231 404 208T570 186Q641 186 686 196T760 229T807 290T824 383V627Q824 637 823 649T822 672T821 692T820 706Q774 692 707 684T527 677Q313 677 204 723T95 864Q95 956 207 1002T551 1049Z" horiz-adv-x="1207" unicode="ฮ"/>
			<glyph d="M773 1034H1024V0H775V773H771Q743 723 699 670T601 574T478 503T318 475Q187 475 115 543T43 732Q43 796 65 840T124 913T206 954T298 967Q352 967 394 950V789Q374 798 349 805T298 812Q263 812 237 791T212 732Q212 692 242 666T339 640Q421 640 490 676T613 770T707 897T773 1034Z" horiz-adv-x="1157" unicode="ฯ"/>
			<glyph d="M237 868Q205 868 182 845T160 791Q160 759 182 736T237 714Q269 714 291 736T314 791Q314 823 291 845T237 868ZM725 1021V815Q697 776 651 735T548 661T423 606T287 585Q227 585 182 600T107 643T62 706T47 785Q47 825 62 860T102 922T162 964T236 980Q275 980 310 965T370 924T411 864T426 791Q426 775 422 757T415 734Q506 770 585 846T725 1021ZM237 395Q205 395 182 372T160 318Q160 286 182 263T237 241Q269 241 291 263T314 318Q314 350 291 372T237 395ZM725 548V342Q697 303 651 262T548 188T423 133T287 112Q227 112 182 127T107 170T62 233T47 312Q47 352 62 387T102 449T162 491T236 507Q275 507 310 492T370 451T411 391T426 318Q426 302 422 284T415 261Q506 297 585 373T725 548Z" horiz-adv-x="773" unicode="ะ"/>
			<glyph d="M-512 1374Q-544 1374 -566 1351T-589 1297Q-589 1265 -566 1242T-512 1220Q-480 1220 -457 1242T-435 1297Q-435 1329 -457 1351T-512 1374ZM-24 1527V1321Q-52 1282 -97 1241T-201 1167T-325 1112T-462 1091Q-522 1091 -567 1106T-642 1149T-687 1212T-702 1291Q-702 1331 -687 1366T-646 1428T-586 1470T-513 1486Q-474 1486 -439 1471T-378 1430T-338 1370T-323 1297Q-323 1281 -327 1263T-334 1240Q-289 1258 -246 1286T-163 1352T-89 1434T-24 1527Z" unicode="ั"/>
			<glyph d="M449 1049Q713 1049 840 942T968 631V0H719V608Q719 725 654 787T449 849Q398 849 341 839T230 813T127 773T43 724V954Q77 979 123 997T223 1026T335 1043T449 1049Z" horiz-adv-x="1088" unicode="า"/>
			<glyph d="M449 1049Q713 1049 840 942T968 631V0H683V608Q683 725 624 777T449 829Q398 829 341 819T230 793T127 753T43 704V954Q77 979 123 997T223 1026T335 1043T449 1049ZM-282 1337Q-311 1337 -331 1317T-351 1268Q-351 1239 -331 1218T-282 1198Q-253 1198 -232 1218T-212 1268Q-212 1297 -232 1317T-282 1337ZM-282 1450Q-244 1450 -210 1436T-152 1397T-112 1339T-98 1268Q-98 1230 -112 1196T-152 1138T-210 1100T-282 1086Q-320 1086 -353 1100T-410 1138T-448 1196T-462 1268Q-462 1306 -448 1339T-410 1397T-353 1436T-282 1450Z" horiz-adv-x="1088" unicode="ำ"/>
			<glyph d="M-686 1438Q-604 1438 -526 1416T-384 1351T-272 1247T-202 1106V1097Q-325 1117 -438 1130T-661 1152T-881 1163T-1110 1166Q-1075 1297 -967 1367T-686 1438ZM-685 1337Q-867 1337 -913 1246Q-770 1246 -643 1238T-399 1215Q-416 1239 -443 1261T-506 1300T-587 1327T-685 1337Z" unicode="ิ"/>
			<glyph d="M-322 1521H-202V1097Q-325 1117 -438 1130T-661 1152T-881 1163T-1110 1166Q-1075 1297 -967 1367T-686 1438Q-582 1438 -487 1403T-322 1302ZM-685 1337Q-867 1337 -913 1246Q-770 1246 -643 1238T-399 1215Q-416 1239 -443 1261T-506 1300T-587 1327T-685 1337Z" unicode="ี"/>
			<glyph d="M-269 1504Q-236 1504 -207 1492T-157 1458T-123 1408T-111 1347Q-111 1318 -120 1292T-147 1247T-188 1213T-238 1195L-239 1196Q-216 1156 -202 1106V1097Q-325 1117 -438 1130T-661 1152T-881 1163T-1110 1166Q-1075 1297 -967 1367T-686 1438Q-615 1438 -548 1422T-423 1374Q-418 1402 -404 1425T-369 1466T-323 1494T-269 1504ZM-685 1337Q-867 1337 -913 1246Q-770 1246 -643 1238T-399 1215Q-416 1239 -443 1261T-506 1300T-587 1327T-685 1337ZM-269 1410Q-295 1410 -313 1391T-331 1347Q-331 1321 -313 1303T-269 1285Q-243 1285 -224 1303T-206 1347Q-206 1373 -224 1391T-269 1410Z" unicode="ึ"/>
			<glyph d="M-516 1521H-396V1358Q-356 1334 -322 1302V1521H-202V1097Q-325 1117 -438 1130T-661 1152T-881 1163T-1110 1166Q-1075 1297 -967 1367T-686 1438Q-641 1438 -599 1431T-516 1413ZM-685 1337Q-867 1337 -913 1246Q-770 1246 -643 1238T-399 1215Q-416 1239 -443 1261T-506 1300T-587 1327T-685 1337Z" unicode="ื"/>
			<glyph d="M-280 -108Q-221 -108 -189 -141T-157 -225V-481H-282V-334H-288Q-312 -334 -332 -325T-368 -301T-392 -265T-401 -220Q-401 -198 -393 -178T-369 -142T-331 -117T-280 -108ZM-288 -179Q-305 -179 -317 -191T-329 -220Q-329 -237 -317 -249T-288 -261Q-271 -261 -259 -249T-247 -220Q-247 -203 -259 -191T-288 -179Z" unicode="ุ"/>
			<glyph d="M-579 -108Q-520 -108 -488 -141T-456 -225V-363H-425Q-376 -363 -346 -351T-301 -312T-280 -238T-274 -125H-119Q-119 -167 -122 -209T-135 -292T-163 -366T-214 -426T-292 -466T-405 -481H-581V-334H-587Q-611 -334 -631 -325T-667 -301T-691 -265T-700 -220Q-700 -198 -692 -178T-668 -142T-630 -117T-579 -108ZM-587 -179Q-604 -179 -616 -191T-628 -220Q-628 -237 -616 -249T-587 -261Q-570 -261 -558 -249T-546 -220Q-546 -203 -558 -191T-587 -179Z" unicode="ู"/>
			<glyph d="M-269 -106Q-245 -106 -225 -115T-190 -139T-166 -175T-158 -219Q-158 -267 -189 -298T-269 -330Q-293 -330 -313 -321T-348 -298T-371 -263T-380 -219Q-380 -196 -371 -175T-348 -139T-313 -115T-269 -106Z" unicode="ฺ"/>
			<glyph d="M552 1599H706V1433Q923 1423 1038 1336T1153 1098Q1153 981 1074 895Q997 809 874 774V770Q1028 750 1118 657Q1210 562 1210 428Q1210 231 1069 115Q935 5 706 0V-158H552V0H133V1434H552ZM706 614V236Q786 253 833 305T880 432Q880 504 833 551T706 614ZM446 621V228H552V621ZM446 1206V851H552V1206ZM706 1187V870Q760 892 791 935T823 1038Q823 1092 793 1129T706 1187Z" horiz-adv-x="1278" unicode="฿"/>
			<glyph d="M148 1035H398V365L406 364Q441 360 470 345T522 306T556 250T569 179Q569 133 554 97T511 38T445 2T360 -10Q272 -10 210 46T148 221ZM380 256Q348 256 325 233T303 179Q303 147 325 124T380 102Q412 102 434 124T457 179Q457 211 434 233T380 256Z" horiz-adv-x="633" unicode="เ"/>
			<glyph d="M133 1035H383V365L391 364Q426 360 455 345T507 306T541 250T554 179Q554 133 539 97T496 38T430 2T345 -10Q257 -10 195 46T133 221ZM365 256Q333 256 310 233T288 179Q288 147 310 124T365 102Q397 102 419 124T442 179Q442 211 419 233T365 256ZM726 1035H976V365L984 364Q1019 360 1048 345T1100 306T1134 250T1147 179Q1147 133 1132 97T1089 38T1023 2T938 -10Q850 -10 788 46T726 221ZM958 256Q926 256 903 233T881 179Q881 147 903 124T958 102Q990 102 1012 124T1035 179Q1035 211 1012 233T958 256Z" horiz-adv-x="1190" unicode="แ"/>
			<glyph d="M386 1892Q419 1892 459 1889T543 1883T630 1877T711 1874Q777 1874 822 1876T900 1884V1719Q883 1717 865 1715T826 1713T778 1711T718 1711Q682 1711 635 1714T541 1720T453 1726T387 1729Q328 1729 302 1717T261 1690T238 1650T230 1583Q249 1587 274 1589T361 1591Q415 1591 479 1579T584 1532T644 1436T665 1274V365L673 364Q708 360 737 345T789 306T823 250T836 179Q836 133 821 97T778 38T712 2T627 -10Q539 -10 477 46T415 221V1294Q413 1332 404 1358T378 1401T333 1424T265 1431Q188 1431 121 1425T1 1406V1540Q0 1622 21 1687T89 1798T209 1868T386 1892ZM647 256Q615 256 592 233T570 179Q570 147 592 124T647 102Q679 102 701 124T724 179Q724 211 701 233T647 256Z" horiz-adv-x="915" unicode="โ"/>
			<glyph d="M772 256Q740 256 717 233T695 179Q695 147 717 124T772 102Q804 102 826 124T849 179Q849 211 826 233T772 256ZM549 1903Q619 1903 703 1878T846 1807T936 1694T967 1546Q917 1518 883 1488T828 1419T799 1329T790 1211V365L798 364Q832 360 862 345T914 306T948 250T961 179Q961 132 946 97T903 38T836 2T752 -10Q663 -10 601 46T540 221V1195Q541 1279 550 1334T579 1428T631 1493T708 1548Q708 1584 699 1613T666 1673T596 1721T487 1738Q405 1738 344 1713T254 1645Q259 1647 266 1647T279 1648Q321 1648 355 1634T415 1595T454 1536T468 1459Q468 1417 454 1382T415 1322T355 1284T279 1270Q225 1270 184 1289T116 1344T74 1428T60 1536Q60 1617 89 1684T175 1800T316 1876T549 1903ZM279 1536Q247 1536 224 1513T202 1459Q202 1427 224 1404T279 1382Q311 1382 333 1404T356 1459Q356 1491 333 1513T279 1536Z" horiz-adv-x="1004" unicode="ใ"/>
			<glyph d="M-23 1892H137Q150 1872 157 1846T171 1779L206 1537Q212 1494 219 1479T240 1465Q251 1465 260 1479T275 1537L293 1675Q300 1731 316 1772T363 1839T438 1879T550 1892Q585 1892 634 1874T713 1825T758 1748T772 1647V365L780 364Q815 360 844 345T896 306T930 250T943 179Q943 133 928 97T885 38T819 2T734 -10Q646 -10 584 46T523 221V1649Q523 1681 520 1700T512 1729T502 1741T489 1744Q482 1744 475 1741T463 1728T453 1699T445 1649L429 1530Q422 1481 409 1441T375 1374T320 1332T241 1317Q193 1317 159 1332T104 1375T70 1442T52 1530L20 1774Q15 1811 3 1841T-23 1892ZM754 256Q722 256 699 233T677 179Q677 147 699 124T754 102Q786 102 808 124T831 179Q831 211 808 233T754 256Z" horiz-adv-x="1002" unicode="ไ"/>
			<glyph d="M449 1049Q713 1049 840 942T968 631V-410H719V618Q719 735 650 792T449 849Q398 849 341 839T230 813T127 773T43 724V954Q77 979 123 997T223 1026T335 1043T449 1049Z" horiz-adv-x="1088" unicode="ๅ"/>
			<glyph d="M282 1049L448 874L609 1049Q667 1046 728 1025T841 966T924 872T957 742V-410H708V735Q708 786 688 824T603 883L448 714L302 866Q273 839 260 818T239 774T229 726T226 678Q231 680 245 681T268 682Q310 682 344 668T404 629T443 570T457 493Q457 451 443 416T404 356T344 318T268 304Q214 304 172 325T100 384T55 475T40 592Q40 684 59 758T112 889T190 987T282 1049ZM268 570Q236 570 213 547T191 493Q191 461 213 438T268 416Q300 416 322 438T345 493Q345 525 322 547T268 570Z" horiz-adv-x="1077" unicode="ๆ"/>
			<glyph d="M-137 1600V1483Q-155 1459 -178 1442T-229 1416T-284 1403T-339 1399H-625Q-681 1399 -705 1375T-729 1313Q-729 1281 -718 1264T-693 1241Q-672 1273 -641 1291T-557 1310Q-514 1310 -475 1291T-403 1251T-341 1211T-289 1193Q-272 1193 -260 1197T-241 1207Q-277 1208 -301 1234T-326 1297Q-326 1332 -302 1359T-232 1386Q-185 1386 -159 1356T-133 1282Q-133 1248 -144 1214T-176 1154T-227 1111T-295 1095Q-340 1095 -375 1113T-441 1152T-499 1191T-557 1209Q-598 1209 -626 1181T-684 1100Q-717 1116 -747 1136T-800 1183T-837 1241T-851 1313Q-851 1364 -832 1399T-782 1455T-708 1487T-620 1497H-377Q-340 1497 -305 1506T-238 1529T-181 1562T-137 1600ZM-234 1337Q-251 1337 -262 1325T-273 1299Q-273 1279 -262 1267T-234 1255Q-217 1255 -206 1267T-195 1296Q-195 1313 -206 1325T-234 1337Z" unicode="็"/>
			<glyph d="M-345 1440H-205V1110H-345Z" unicode="่"/>
			<glyph d="M-615 1521Q-571 1521 -534 1509T-470 1475T-429 1423T-415 1354Q-415 1252 -504 1196Q-419 1196 -369 1225T-293 1302T-259 1406T-250 1521H-87Q-92 1453 -100 1396T-127 1293T-175 1213T-252 1156T-366 1121T-527 1110H-653V1198Q-607 1212 -576 1248T-546 1337Q-551 1327 -559 1315T-581 1294T-613 1278T-656 1272Q-683 1272 -705 1281T-744 1308T-770 1348T-780 1398Q-780 1449 -738 1485T-615 1521ZM-646 1453Q-669 1453 -685 1436T-702 1397Q-702 1374 -685 1357T-646 1341Q-623 1341 -606 1357T-590 1397Q-590 1420 -606 1436T-646 1453Z" unicode="้"/>
			<glyph d="M-668 1509L-549 1407L-434 1509Q-365 1477 -328 1426T-291 1303Q-291 1281 -292 1266T-294 1239Q-246 1239 -221 1310T-195 1509H-60Q-64 1468 -69 1422T-86 1333T-121 1248T-181 1177T-276 1128T-413 1110Q-409 1133 -406 1158T-401 1207T-398 1254T-397 1292Q-397 1332 -407 1355T-437 1389L-549 1290L-664 1389Q-709 1366 -709 1296Q-709 1288 -708 1278T-704 1261Q-692 1281 -671 1292T-627 1303Q-592 1303 -565 1280T-538 1209Q-538 1161 -567 1135T-642 1110Q-677 1110 -708 1123T-762 1160T-798 1218T-811 1296Q-811 1368 -774 1422T-668 1509ZM-628 1252Q-645 1252 -657 1240T-669 1211Q-669 1194 -657 1182T-628 1170Q-611 1170 -599 1182T-587 1211Q-587 1228 -599 1240T-628 1252Z" unicode="๊"/>
			<glyph d="M-325 1440H-225V1323H-108V1227H-225V1110H-325V1227H-442V1323H-325Z" unicode="๋"/>
			<glyph d="M-126 1565H37Q29 1520 16 1479T-19 1408T-76 1360T-161 1342Q-195 1342 -233 1343T-307 1346T-370 1349T-410 1351Q-403 1345 -395 1335T-379 1313T-367 1284T-362 1249Q-362 1179 -405 1137T-528 1096Q-606 1096 -651 1142T-697 1262Q-697 1299 -684 1330T-644 1385T-579 1421T-490 1435Q-456 1435 -432 1434T-387 1432T-341 1430T-278 1429Q-209 1429 -173 1462T-126 1565ZM-528 1326Q-563 1326 -584 1305T-606 1251Q-606 1216 -584 1196T-528 1176Q-496 1176 -474 1196T-453 1251Q-453 1285 -474 1305T-528 1326Z" unicode="์"/>
			<glyph d="M-278 1337Q-307 1337 -327 1317T-347 1268Q-347 1239 -327 1218T-278 1198Q-249 1198 -228 1218T-208 1268Q-208 1297 -228 1317T-278 1337ZM-278 1450Q-240 1450 -206 1436T-148 1397T-108 1339T-94 1268Q-94 1230 -108 1196T-148 1138T-206 1100T-278 1086Q-316 1086 -349 1100T-406 1138T-444 1196T-458 1268Q-458 1306 -444 1339T-406 1397T-349 1436T-278 1450Z" unicode="ํ"/>
			<glyph d="M-159 1567Q-140 1567 -115 1564T-75 1556V1448Q-81 1450 -92 1452T-115 1455T-139 1457T-159 1458Q-213 1458 -235 1447T-257 1418Q-257 1403 -247 1394T-223 1382T-190 1378T-154 1377V1291Q-177 1291 -206 1289T-261 1282T-305 1264T-323 1233Q-323 1197 -265 1197Q-234 1197 -203 1203T-146 1218V1105Q-168 1097 -201 1093T-265 1089Q-361 1089 -413 1120T-465 1212Q-465 1240 -452 1261T-416 1297T-362 1323T-296 1339Q-338 1350 -365 1374T-392 1434Q-392 1472 -369 1497T-313 1538T-238 1560T-159 1567Z" unicode="๎"/>
			<glyph d="M559 1001Q663 1001 755 961T917 853T1026 692T1066 495Q1066 389 1026 296T917 135T755 26T559 -14Q453 -14 360 26T199 135T90 296T50 495Q50 600 90 692T199 853T360 961T559 1001ZM559 835Q487 835 424 808T316 736T243 628T217 495Q217 424 243 361T316 252T424 179T559 152Q630 152 692 179T800 252T872 361T899 495Q899 566 872 628T800 736T692 808T559 835ZM559 660Q593 660 623 647T675 611T711 559T725 495Q725 461 711 430T675 376T623 340T559 327Q525 327 494 340T440 376T404 430T391 495Q391 529 404 559T440 611T494 647T559 660Z" horiz-adv-x="1116" unicode="๏"/>
			<glyph d="M636 706Q560 706 503 688T405 636T340 553T317 432Q317 359 340 310T405 227T503 175T636 157Q714 157 771 175T869 227T934 310T958 432Q958 504 934 553T869 636T771 688T636 706ZM636 874Q752 874 854 845T1034 760T1155 621T1200 432Q1200 326 1155 243T1034 104T854 19T636 -10Q521 -10 419 19T240 104T119 243T75 432Q75 539 119 621T240 760T419 845T636 874Z" horiz-adv-x="1275" unicode="๐"/>
			<glyph d="M666 874Q800 874 909 841T1097 747T1217 602T1260 412Q1260 316 1228 241T1146 112T1030 28T900 -10V167Q937 188 959 217T994 281T1012 354T1018 432Q1018 505 993 554T924 636T816 688T666 706Q579 706 516 689T409 640T341 557T317 432Q317 352 339 303T394 223T465 178T540 164Q575 164 598 175T629 199Q588 200 555 215T499 256T463 315T451 384Q451 471 505 522T653 573Q694 573 732 560T801 519T849 449T868 349Q868 267 844 201T774 88T663 15T514 -10Q431 -10 352 16T211 94T112 226T75 412Q75 516 116 601T234 746T420 840T666 874ZM641 461Q625 461 610 455T585 438T569 414T563 384Q563 352 586 329T641 306Q657 306 671 312T695 328T712 353T718 384Q718 416 695 438T641 461Z" horiz-adv-x="1335" unicode="๑"/>
			<glyph d="M120 1245H374V349Q374 286 411 252T512 219H947Q1007 219 1041 252T1076 349V610Q1076 668 1059 694T1005 720Q991 720 977 714T953 696T937 661T931 606H785Q785 639 778 661T761 696T738 714T711 720Q681 720 663 692T645 595Q645 541 650 499T669 425Q669 453 679 476T706 517T746 544T798 554Q826 554 849 544T890 517T918 476T928 425Q928 354 883 320T766 286Q699 286 644 301T551 351T491 446T470 595Q470 666 479 722T513 816T581 875T693 896Q726 896 753 887T802 864T838 829T859 786H861Q876 831 921 863T1046 896Q1168 896 1237 831T1306 635V274Q1306 225 1294 176T1253 88T1171 24T1039 0H404Q323 0 268 24T181 88T134 176T120 274ZM799 482Q775 482 757 465T740 424Q740 399 757 382T799 366Q823 366 840 382T857 424Q857 449 840 465T799 482Z" horiz-adv-x="1426" unicode="๒"/>
			<glyph d="M428 866Q481 866 523 849T595 806T645 749T672 689Q680 718 699 749T749 806T822 849T916 866Q1001 866 1065 834T1173 745T1238 607T1260 430Q1260 337 1235 262T1163 131T1052 41T910 -10V167Q965 188 991 255T1018 432Q1018 494 1007 540T978 620T935 674T872 694Q847 694 827 686T791 658T764 599T743 501H596Q587 561 574 599T544 658T507 688T463 696Q423 696 398 676T355 621T327 541T317 432Q317 377 324 334T345 260T376 205T413 166Q408 178 406 190T405 217Q405 260 419 295T457 354T516 392T592 406Q629 406 663 392T723 354T764 295T780 218Q780 175 764 133T716 60T637 9T524 -10Q429 -10 344 20T199 107T107 245T75 430Q75 529 98 609T166 747T277 835T428 866ZM591 295Q559 295 536 272T513 217Q513 201 519 187T535 162T560 146T591 140Q623 140 645 162T668 217Q668 233 662 247T645 272T621 289T591 295Z" horiz-adv-x="1335" unicode="๓"/>
			<glyph d="M878 1203H1116Q1124 1189 1129 1167T1135 1117Q1135 1052 1111 1005T1041 923T926 864T765 819Q683 798 600 769T454 691T353 571T315 398Q315 341 328 301T367 234T428 190T521 175Q566 175 617 185T719 201Q703 210 686 228T656 271T634 328T625 399Q625 455 647 506T710 598T811 661T946 685Q1002 685 1045 671T1119 631T1165 569T1181 490Q1181 448 1166 413T1126 353T1066 315T993 302Q952 302 917 315T858 354T820 413T806 491Q784 480 770 454T756 395Q756 349 775 316T828 262T906 227T1000 208Q1061 202 1107 191T1186 166V-18Q1167 -10 1134 0T1061 17T977 30T892 35Q853 35 803 29T703 15T605 2T521 -4Q398 -4 312 26T174 108T98 233T75 390Q75 516 118 611T242 775T434 891T695 971Q799 997 847 1036T895 1132Q895 1149 890 1169T878 1203ZM992 568Q976 568 961 562T936 545T920 521T914 491Q914 459 937 436T992 413Q1008 413 1022 419T1046 435T1063 460T1069 491Q1069 523 1046 545T992 568Z" horiz-adv-x="1271" unicode="๔"/>
			<glyph d="M878 1203H1116Q1124 1189 1129 1167T1135 1117Q1135 1052 1111 1005T1041 923T926 864T765 819Q683 798 601 770T455 692T353 571T315 398Q315 341 328 301T367 234T428 190T521 175Q566 175 617 185T719 201Q703 210 686 228T656 271T634 328T625 399Q625 455 647 506T710 598T811 661T946 685Q1002 685 1045 671T1119 631T1165 569T1181 490Q1181 448 1166 413T1126 353T1066 315T993 302Q952 302 917 315T858 354T820 413T806 491Q784 480 770 454T756 395Q756 349 775 316T828 262T906 227T1000 208Q1061 202 1107 191T1186 166V-18Q1167 -10 1134 0T1061 17T977 30T892 35Q853 35 803 29T703 15T605 2T521 -4Q398 -4 312 26T174 108T98 233T75 390Q75 470 93 537T145 661T228 762T340 845Q310 871 292 907T275 988Q275 1027 289 1061T329 1121T389 1161T462 1176Q501 1176 535 1161T595 1121T635 1061T650 988Q650 981 649 974T648 962Q657 964 666 966T685 971Q793 997 844 1036T895 1132Q895 1149 890 1169T878 1203ZM992 568Q976 568 961 562T936 545T920 521T914 491Q914 459 937 436T992 413Q1008 413 1022 419T1046 435T1063 460T1069 491Q1069 523 1046 545T992 568ZM464 1065Q448 1065 434 1059T409 1042T393 1017T387 987Q387 955 409 932T464 910Q480 910 494 916T519 932T536 957T542 987Q542 1019 519 1042T464 1065Z" horiz-adv-x="1271" unicode="๕"/>
			<glyph d="M10 1213H250Q282 1142 307 1054T352 873Q364 877 384 881T427 888T475 893T534 895Q662 895 756 863T911 774T1002 635T1032 451Q1032 350 1002 265T910 119T749 24T515 -10Q426 -10 350 14T220 84T135 197T105 349Q105 407 123 449T172 519T241 560T320 573Q414 573 468 522T522 384Q522 348 509 315T474 256T418 215T344 199Q350 192 364 183T396 169T437 159T483 155Q556 155 610 170T704 219T767 307T790 451Q790 529 769 579T711 661T626 709T514 725Q482 725 447 721T379 711T314 696T255 676Q244 715 227 759T188 856T141 962T92 1063T46 1150T10 1213ZM332 461Q300 461 277 438T255 384Q255 368 261 353T277 328T302 312T332 306Q364 306 387 329T410 384Q410 400 404 414T387 438T362 455T332 461Z" horiz-adv-x="1107" unicode="๖"/>
			<glyph d="M557 295Q525 295 502 272T479 217Q479 201 485 187T501 162T526 146T557 140Q589 140 611 162T634 217Q634 233 628 247T611 272T587 289T557 295ZM1328 1245H1572V274Q1572 225 1558 176T1511 88T1423 24T1288 0H887Q915 88 926 200T938 432Q938 494 928 540T903 620T865 674T812 694Q791 694 774 687T745 662T722 607T704 511H554Q546 571 535 607T510 663T481 689T447 696Q420 696 393 676T350 621T326 541T317 432Q317 391 319 351T329 277T348 215T380 172Q375 184 373 196T372 223Q372 266 386 300T425 357T484 393T559 406Q596 406 630 392T690 354T732 295T748 218Q748 171 732 129T685 57T606 8T494 -10Q402 -10 322 20T187 107T103 245T75 430Q75 529 96 609T160 747T263 835T404 866Q454 865 493 848T560 805T607 749T632 689Q639 718 657 749T704 807T772 850T859 866Q939 866 999 834T1099 745T1159 607T1180 430Q1180 361 1174 308T1158 209H1190Q1254 209 1291 242T1328 339Z" horiz-adv-x="1692" unicode="๗"/>
			<glyph d="M878 1203H1116Q1124 1189 1129 1167T1135 1117Q1135 1052 1111 1005T1041 923T926 864T765 819Q683 798 603 768T457 690T353 571T315 398Q315 358 323 327T344 273T374 236T417 211Q425 241 439 270T477 321T534 357T612 371Q649 371 684 357T752 322T815 277T874 232T928 197T977 183Q990 183 1003 186T1029 198T1051 225T1070 271Q1063 269 1054 267T1034 266Q992 266 956 281T896 322T857 382T843 456Q843 497 858 532T899 592T961 632T1036 647Q1077 647 1117 633T1188 589T1240 515T1260 410Q1260 310 1237 232T1175 101T1084 20T975 -8Q937 -8 902 6T834 41T771 87T715 133T664 168T621 182Q597 182 582 169T557 132T542 73T533 -4Q410 -4 323 23T181 102T100 227T75 390Q75 516 118 611T242 775T434 892T685 971Q799 997 847 1036T895 1132Q895 1149 890 1169T878 1203ZM1033 533Q1017 533 1002 527T977 510T961 486T955 456Q955 424 978 401T1033 378Q1049 378 1063 384T1087 400T1104 425T1110 456Q1110 488 1087 510T1033 533Z" horiz-adv-x="1335" unicode="๘"/>
			<glyph d="M1288 1055H1482Q1478 938 1463 843T1421 683T1352 581T1252 546Q1219 546 1191 558T1139 588T1096 628T1060 668T1031 699T1007 711Q992 711 982 694T965 648T953 581T944 501L1127 0H871L711 489Q673 601 617 648T486 696Q434 696 404 676T354 622T326 541T317 432Q317 367 325 312T354 217Q354 260 368 295T406 354T465 392T541 406Q578 406 612 392T672 354T713 295T729 218Q729 175 713 133T665 60T586 9T473 -10Q399 -10 325 20T195 107T107 245T75 430Q75 529 101 609T180 745T309 833T488 864Q574 864 635 845T739 798T806 739T845 684Q853 723 863 760T890 826T928 872T983 890Q1010 890 1033 878T1077 847T1115 807T1148 765T1178 732T1208 720Q1232 720 1245 744T1267 815T1280 922T1288 1055ZM540 295Q508 295 485 272T462 217Q462 201 468 187T484 162T509 146T540 140Q572 140 594 162T617 217Q617 233 611 247T594 272T570 289T540 295Z" horiz-adv-x="1525" unicode="๙"/>
			<glyph d="M1243 1034H1492V0H1243ZM773 1034H1024V0H775V773H771Q743 723 699 670T601 574T478 503T318 475Q187 475 115 543T43 732Q43 796 65 840T124 913T206 954T298 967Q352 967 394 950V789Q374 798 349 805T298 812Q263 812 237 791T212 732Q212 692 242 666T339 640Q421 640 490 676T613 770T707 897T773 1034Z" horiz-adv-x="1612" unicode="๚"/>
			<glyph d="M469 1073Q523 1073 580 1056T682 1005V810Q637 856 581 882T471 909Q410 909 370 876T307 789T275 664T266 519Q266 446 275 376T305 253T362 166T452 133Q502 133 541 158T611 227T666 333T711 468T747 624T780 792L944 405L1055 706L1188 391L1327 706Q1361 570 1410 509T1522 449Q1584 449 1616 493T1662 614H1799Q1773 462 1704 383T1524 304Q1448 304 1397 343T1314 449L1179 146L1055 446L944 146L816 443Q798 360 770 275T699 123T597 12T455 -30Q384 -30 330 -8T236 51T169 142T126 255T103 384T96 521Q96 635 115 735T178 911T293 1029T469 1073Z" horiz-adv-x="1823" unicode="๛"/>
			<glyph d="M287 1049Q361 1049 422 1020Q497 982 553 900Q784 1049 997 1049Q1234 1049 1377 916Q1517 788 1517 583Q1517 433 1449 273Q1403 166 1292 -13L1064 68Q1267 373 1267 583Q1267 680 1205 759Q1131 851 977 851Q835 851 648 746Q694 643 694 500Q694 319 585 155T310 -9Q222 -9 166 41T110 172Q110 250 168 302T313 355Q363 355 408 338Q449 403 449 498Q449 581 425 659Q360 630 289 630Q176 630 112 685T49 831Q49 923 118 986T287 1049ZM289 895Q226 895 226 840Q226 819 243 801T289 784Q324 784 379 812Q344 895 289 895ZM315 224Q256 224 256 172Q256 121 315 121Q373 121 373 172Q373 193 355 208T315 224Z" horiz-adv-x="1587" unicode="ກ"/>
			<glyph d="M745 1049Q999 1049 1169 985Q1390 901 1390 728Q1390 569 1130 470Q988 421 686 370Q319 313 319 244Q319 182 483 182Q552 182 740 223T1038 264Q1286 264 1400 63L1199 -28Q1154 70 1000 70Q920 70 728 28T415 -13Q264 -13 171 46Q69 112 69 229Q69 392 324 482Q450 529 730 582Q922 618 986 632Q1140 664 1140 730Q1140 856 745 856Q576 856 475 828Q525 774 525 723Q525 649 466 600T313 551Q219 551 155 608T92 752Q92 913 327 991Q502 1049 745 1049ZM320 783Q297 783 279 768T262 732Q262 681 320 681Q379 681 379 732Q379 783 320 783Z" horiz-adv-x="1448" unicode="ຂ"/>
			<glyph d="M688 1049Q991 1049 1189 931Q1412 797 1412 555Q1412 303 1201 -13L972 66Q1162 318 1162 550Q1162 675 1033 762T681 851Q521 851 416 804T311 697Q311 680 320 669Q412 726 506 726Q593 726 657 692Q739 644 739 549Q739 455 657 405Q587 363 484 363Q408 363 320 400Q311 375 311 355Q311 300 344 266Q410 333 493 333Q579 333 635 290Q697 243 697 160Q697 81 621 32Q551 -13 448 -13Q318 -13 199 79T81 327Q81 426 154 515Q71 602 71 701Q71 870 290 968Q470 1049 688 1049ZM490 593Q428 593 385 544Q430 505 490 505Q562 505 562 549Q562 593 490 593ZM491 212Q434 212 434 160Q434 109 491 109Q550 109 550 160Q550 212 491 212Z" horiz-adv-x="1483" unicode="ຄ"/>
			<glyph d="M477 1049Q1003 1049 1003 318Q1003 -1 893 -156Q752 -357 401 -357Q262 -357 149 -327L208 -136Q316 -159 401 -159Q612 -159 692 -29Q753 91 753 318Q753 488 710 642Q647 851 474 851Q393 851 364 810Q460 762 460 662Q460 581 405 531T254 481Q148 481 87 551Q30 618 30 709Q30 861 157 964Q280 1049 477 1049ZM254 714Q197 714 197 662Q197 612 254 612Q314 612 314 662Q314 714 254 714Z" horiz-adv-x="1073" unicode="ງ"/>
			<glyph d="M718 1049Q987 1049 1161 920Q1343 784 1343 557Q1343 380 1227 225T903 -33L774 65Q836 130 860 181Q885 233 885 308Q885 416 843 459Q804 499 741 499Q654 499 628 436Q793 405 793 268Q793 197 742 146Q684 87 588 87Q479 87 415 170Q367 239 367 329Q367 475 476 575Q583 670 727 670Q880 670 970 588T1060 374Q1093 443 1093 539Q1093 683 982 767T708 851Q398 851 236 572L36 665Q128 858 315 958Q488 1049 718 1049ZM589 321Q531 321 531 270Q531 218 589 218Q647 218 647 270Q647 321 589 321Z" horiz-adv-x="1413" unicode="ຈ"/>
			<glyph d="M651 1049Q931 1049 1113 933Q1318 803 1318 567Q1318 374 1156 236Q1232 160 1232 24V-77Q1232 -152 1328 -152V-351Q1191 -351 1094 -302Q982 -245 982 -111V88Q765 -18 549 -18Q374 -18 250 54Q120 131 120 251Q120 356 257 430Q378 485 551 485Q759 485 986 379Q1068 461 1068 569Q1068 682 964 764Q847 851 651 851Q506 851 440 801Q499 757 499 694Q499 614 447 565Q391 513 293 513Q193 513 132 567T71 716Q71 873 275 969Q446 1049 651 1049ZM293 745Q236 745 236 694Q236 643 293 643Q352 643 352 694Q352 745 293 745ZM554 317Q459 317 408 284Q369 258 369 232Q369 158 554 158Q639 158 713 182T841 242Q739 317 554 317Z" horiz-adv-x="1389" unicode="ຊ"/>
			<glyph d="M448 1049Q551 1049 621 1005Q697 956 697 877Q697 794 635 747Q579 704 493 704Q416 704 344 771Q311 737 311 682Q311 662 320 632Q422 673 505 673Q617 673 687 631Q769 582 769 488Q769 393 687 345Q619 305 515 305Q413 305 320 367Q311 356 311 330Q311 272 415 229T693 186Q898 186 1030 276T1162 507Q1162 707 970 968L1201 1049Q1412 734 1412 481Q1412 240 1189 106Q991 -13 688 -13Q470 -13 290 69Q71 167 71 336Q71 435 154 517Q81 611 81 710Q81 864 190 956T448 1049ZM491 928Q434 928 434 877Q434 825 491 825Q550 825 550 877Q550 928 491 928ZM510 532Q443 532 385 489Q440 444 510 444Q612 444 612 488Q612 532 510 532Z" horiz-adv-x="1456" unicode="ຍ"/>
			<glyph d="M735 1049Q1038 1049 1217 914Q1402 774 1402 527Q1402 306 1181 -13L957 74Q1077 235 1115 330Q1152 421 1152 527Q1152 653 1053 750Q937 851 735 851Q522 851 415 750Q321 652 321 527Q321 382 382 319Q429 351 488 351Q575 351 631 305Q691 256 691 169Q691 85 637 36T483 -13Q311 -13 178 171Q71 331 71 525Q71 774 253 914Q431 1049 735 1049ZM486 221Q463 221 445 205T428 169Q428 118 486 118Q545 118 545 169Q545 221 486 221Z" horiz-adv-x="1473" unicode="ດ"/>
			<glyph d="M562 1049Q659 1049 742 1004T860 890Q895 959 978 1004T1159 1049Q1400 1049 1532 902Q1651 770 1651 563Q1651 310 1430 -9L1222 98Q1400 338 1400 563Q1400 666 1346 747Q1273 851 1153 851Q984 851 956 668H766Q738 851 567 851Q439 851 376 751Q321 656 321 563Q321 418 382 322Q429 355 488 355Q575 355 631 309Q691 260 691 172Q691 88 634 39T481 -9Q299 -9 176 188Q71 365 71 563Q71 770 189 902Q322 1049 562 1049ZM486 224Q463 224 445 208T428 172Q428 121 486 121Q545 121 545 172Q545 224 486 224Z" horiz-adv-x="1708" unicode="ຕ"/>
			<glyph d="M287 1049Q358 1049 426 1014Q506 972 550 896Q781 1049 997 1049Q1234 1049 1377 916Q1517 788 1517 583V-357H1267V566Q1267 674 1205 759Q1132 851 977 851Q845 851 621 725Q633 697 633 644Q633 588 611 492Q587 390 585 344Q613 351 638 351Q725 351 783 298T841 169Q841 -13 629 -13Q493 -13 404 88Q339 171 339 283Q339 343 362 461T386 636Q348 622 289 622Q184 622 116 674T49 831Q49 923 118 986T287 1049ZM289 895Q226 895 226 840Q226 819 245 799T289 780Q324 780 379 812Q344 895 289 895ZM638 221Q581 221 581 170Q581 119 638 119Q695 119 695 170Q695 221 638 221Z" horiz-adv-x="1589" unicode="ຖ"/>
			<glyph d="M278 1049Q353 1049 410 1014Q487 967 487 846Q487 777 435 642T384 406Q384 186 546 186Q634 186 670 239Q704 282 704 377Q704 437 697 530T690 672Q690 854 805 955Q923 1049 1079 1049Q1525 1049 1525 560Q1525 305 1372 -13L1136 59Q1275 359 1275 560Q1275 851 1104 851Q946 851 946 661Q946 614 953 522T960 385Q960 191 841 88Q726 -13 544 -13Q336 -13 228 113Q134 221 134 399Q134 515 204 675Q147 689 103 737Q53 791 53 860Q53 938 108 990Q173 1049 278 1049ZM258 912Q199 912 199 860Q199 809 258 809Q316 809 316 860Q316 880 298 896T258 912Z" horiz-adv-x="1596" unicode="ທ"/>
			<glyph d="M274 1049Q456 1049 546 870Q620 726 620 516Q620 401 573 280Q753 186 913 186Q1059 186 1137 271Q1203 353 1203 474Q1203 663 996 970L1228 1049Q1339 871 1385 764Q1453 604 1453 454Q1453 249 1313 121Q1170 -13 933 -13Q701 -13 461 95Q436 51 375 -13L192 136Q370 344 370 514Q370 637 349 709Q314 686 263 686Q176 686 120 731Q60 780 60 868Q60 950 121 999T274 1049ZM265 919Q206 919 206 868Q206 816 265 816Q288 816 305 831T323 868Q323 919 265 919Z" horiz-adv-x="1524" unicode="ນ"/>
			<glyph d="M274 1049Q372 1049 422 1001Q487 939 487 846Q487 777 445 661T404 460Q404 186 795 186Q1192 186 1192 506Q1192 613 1155 705Q1116 803 998 961L1221 1049Q1442 730 1442 506Q1442 258 1267 121Q1096 -13 795 -13Q154 -13 154 454Q154 539 204 675Q147 689 103 737Q53 791 53 860Q53 938 109 990Q176 1049 274 1049ZM258 912Q199 912 199 860Q199 809 258 809Q316 809 316 860Q316 880 298 896T258 912Z" horiz-adv-x="1516" unicode="ບ"/>
			<glyph d="M1388 1236V1037Q1295 1037 1295 953Q1295 905 1369 751T1444 506Q1444 258 1268 121Q1096 -13 795 -13Q154 -13 154 454Q154 539 204 675Q147 689 103 737Q53 791 53 860Q53 938 107 990Q167 1049 267 1049Q342 1049 406 1014Q487 965 487 846Q487 777 445 661T404 460Q404 186 795 186Q1192 186 1192 506Q1192 589 1117 737T1042 981Q1042 1236 1388 1236ZM258 912Q199 912 199 860Q199 809 258 809Q316 809 316 860Q316 880 298 896T258 912Z" horiz-adv-x="1516" unicode="ປ"/>
			<glyph d="M1349 1060L1598 1039Q1593 1021 1580 993Q1549 927 1502 874Q1639 685 1639 478Q1639 271 1520 137Q1387 -13 1147 -13Q987 -13 850 79Q715 -13 553 -13Q313 -13 180 137Q61 271 61 478Q61 675 181 849Q318 1049 524 1049Q629 1049 688 1000T747 868Q747 780 687 731Q631 686 544 686Q463 686 382 741Q311 622 311 498Q311 394 353 308Q430 186 557 186Q631 186 689 216Q599 299 599 385Q599 466 663 533Q733 607 845 607Q963 607 1033 535Q1097 470 1097 388Q1097 296 1012 216Q1074 186 1142 186Q1283 186 1352 323Q1389 395 1389 498Q1389 622 1326 746Q1239 685 1160 685Q1049 686 993 731Q933 780 933 868Q933 952 992 1000T1156 1049Q1249 1049 1330 1006Q1340 1031 1349 1060ZM1141 919Q1079 919 1079 868Q1079 816 1141 816Q1188 816 1240 862Q1195 919 1141 919ZM542 919Q484 919 484 868Q484 847 501 831T542 816Q601 816 601 868Q601 919 542 919ZM850 441Q791 441 791 376Q791 338 850 299Q905 341 905 376Q905 441 850 441Z" horiz-adv-x="1708" unicode="ຜ"/>
			<glyph d="M1583 1236V1037Q1490 1037 1490 953Q1490 905 1564 738T1639 480Q1639 273 1520 138Q1387 -13 1147 -13Q957 -13 850 75Q740 -13 553 -13Q313 -13 180 137Q61 271 61 478Q61 675 181 849Q318 1049 524 1049Q629 1049 688 1000T747 868Q747 780 687 731Q631 686 544 686Q486 686 372 718Q311 622 311 478Q311 394 344 323Q403 186 557 186Q631 186 684 216Q599 306 599 381Q599 470 663 533Q733 607 845 607Q963 607 1033 535Q1097 475 1097 381Q1097 305 1018 217Q1074 186 1142 186Q1287 186 1344 280Q1387 359 1387 472Q1387 564 1312 724T1237 981Q1237 1236 1583 1236ZM542 919Q484 919 484 868Q484 847 501 831T542 816Q601 816 601 868Q601 919 542 919ZM850 441Q791 441 791 376Q791 330 850 293Q905 333 905 376Q905 441 850 441Z" horiz-adv-x="1708" unicode="ຝ"/>
			<glyph d="M246 1049Q319 1049 384 1012Q467 964 467 846Q467 785 418 661T369 464Q369 186 618 186Q673 186 738 220Q649 301 649 376Q649 466 713 533Q783 607 895 607Q1013 607 1083 535Q1147 470 1147 376Q1147 300 1065 221Q1132 186 1192 186Q1326 186 1385 283Q1439 385 1439 478Q1439 700 1247 963L1468 1049Q1689 730 1689 480Q1689 272 1570 138Q1437 -13 1197 -13Q1007 -13 900 71Q790 -13 603 -13Q362 -13 235 127Q121 252 121 458Q121 535 184 675Q127 689 83 737Q33 791 33 860Q33 938 87 990Q152 1049 246 1049ZM900 441Q841 441 841 376Q841 338 900 299Q955 341 955 376Q955 441 900 441ZM238 912Q179 912 179 860Q179 809 238 809Q296 809 296 860Q296 880 278 896T238 912Z" horiz-adv-x="1749" unicode="ພ"/>
			<glyph d="M1633 1236V1037Q1540 1037 1540 953Q1540 905 1614 738T1689 480Q1689 272 1570 138Q1437 -13 1197 -13Q1007 -13 900 74Q790 -13 603 -13Q362 -13 235 127Q121 252 121 458Q121 535 184 675Q127 689 83 737Q33 791 33 860Q33 938 91 990Q156 1049 249 1049Q327 1049 384 1017Q467 971 467 846Q467 785 418 661T369 464Q369 186 607 186Q681 186 738 219Q649 301 649 376Q649 466 713 533Q783 607 895 607Q1013 607 1083 535Q1147 470 1147 376Q1147 300 1063 220Q1124 186 1192 186Q1327 186 1389 270Q1439 351 1439 462Q1439 565 1363 725T1287 981Q1287 1236 1633 1236ZM900 441Q841 441 841 376Q841 338 900 299Q955 341 955 376Q955 441 900 441ZM238 912Q179 912 179 860Q179 809 238 809Q296 809 296 860Q296 880 278 896T238 912Z" horiz-adv-x="1749" unicode="ຟ"/>
			<glyph d="M561 1049Q697 735 697 538Q697 400 642 279Q846 186 977 186Q1127 186 1205 278Q1267 364 1267 474Q1267 659 1070 964L1293 1048Q1403 871 1449 764Q1517 604 1517 454Q1517 249 1377 121Q1234 -13 997 -13Q796 -13 554 129Q505 57 440 21Q382 -13 292 -13Q184 -13 116 50T49 205Q49 296 116 355T289 414Q360 414 427 382Q448 476 448 538Q448 704 323 974ZM289 257Q265 257 245 237T226 196Q226 142 289 142Q344 142 379 225Q324 257 289 257Z" horiz-adv-x="1587" unicode="ມ"/>
			<glyph d="M1356 1236V1037Q1263 1037 1263 953Q1263 905 1337 738T1412 481Q1412 240 1189 106Q991 -13 688 -13Q470 -13 290 69Q71 167 71 336Q71 435 154 517Q81 611 81 710Q81 874 190 961T448 1049Q551 1049 621 1005Q697 956 697 877Q697 794 635 747Q579 704 493 704Q416 704 344 771Q311 737 311 682Q311 662 320 632Q422 673 505 673Q617 673 687 631Q769 582 769 488Q769 393 687 345Q619 305 515 305Q413 305 320 367Q311 356 311 330Q311 268 418 227T681 186Q909 186 1036 269T1163 485Q1163 550 1086 717T1010 981Q1010 1236 1356 1236ZM491 928Q434 928 434 877Q434 825 491 825Q550 825 550 877Q550 928 491 928ZM505 532Q440 532 395 489Q438 444 505 444Q592 444 592 488Q592 532 505 532Z" horiz-adv-x="1456" unicode="ຢ"/>
			<glyph d="M687 1049Q883 1049 1050 992Q1249 924 1334 795L1128 714Q985 851 695 851Q527 851 433 827T339 766Q339 719 440 697Q479 687 720 646Q1014 600 1146 549Q1390 452 1390 294Q1390 121 1169 37Q999 -28 745 -28Q483 -28 321 20Q92 93 92 244Q92 324 155 375T313 426Q408 426 466 377T525 254Q525 215 501 192Q596 164 745 164Q1140 164 1140 292Q1140 350 1019 381Q962 399 730 440Q427 492 337 524Q91 588 91 765Q91 893 264 972Q432 1049 687 1049ZM320 296Q262 296 262 245Q262 224 279 209T320 194Q379 194 379 245Q379 296 320 296Z" horiz-adv-x="1427" unicode="ຣ"/>
			<glyph d="M743 1049Q1009 1049 1183 910Q1363 765 1363 534Q1363 271 1246 131Q1125 -13 889 -13Q770 -13 647 72Q575 126 503 179Q509 163 509 142Q509 76 455 33Q398 -13 303 -13Q199 -13 131 40Q61 102 61 183Q61 297 139 359Q214 413 340 413Q463 413 637 299T901 186Q1023 186 1079 329Q1113 419 1113 515Q1113 672 1000 761T727 851Q426 851 279 631L74 714Q261 1049 743 1049ZM302 229Q244 229 244 177Q244 125 302 125Q360 125 360 177Q360 229 302 229Z" horiz-adv-x="1434" unicode="ລ"/>
			<glyph d="M733 1049Q1024 1049 1192 920Q1363 788 1363 552Q1363 306 1185 149Q1002 -13 702 -13Q434 -13 279 59Q72 154 72 300Q72 380 132 433T293 486Q388 486 446 437T505 313Q505 256 463 222Q551 186 700 186Q900 186 1016 303Q1113 408 1113 554Q1113 674 1016 760Q909 850 733 851Q608 851 518 816Q400 773 288 639L64 714Q155 870 331 959T733 1049ZM300 355Q242 355 242 305Q242 284 259 269T300 254Q359 254 359 305Q359 355 300 355Z" horiz-adv-x="1434" unicode="ວ"/>
			<glyph d="M585 1049Q857 1049 1092 931Q1144 981 1168 1043H1418Q1414 988 1363 914Q1316 846 1262 805Q1313 762 1348 672Q1383 579 1383 480Q1383 224 1267 105T949 -13Q790 -13 667 72Q595 126 523 179Q529 163 529 142Q529 76 475 33Q418 -13 323 -13Q219 -13 151 46Q81 107 81 190Q81 298 160 359Q237 411 345 411Q483 411 658 298T913 186Q1134 186 1134 453Q1126 588 1067 661Q875 532 587 532Q395 532 250 583Q76 646 76 780Q76 907 246 983Q393 1049 585 1049ZM590 864Q325 864 325 780Q325 743 394 725Q484 705 582 705Q702 705 790 730Q863 749 909 781Q867 814 786 839Q694 864 590 864ZM322 229Q264 229 264 177Q264 125 322 125Q380 125 380 177Q380 229 322 229Z" horiz-adv-x="1450" unicode="ສ"/>
			<glyph d="M244 1049Q333 1049 392 1007Q467 957 467 846Q467 777 425 638T384 416Q384 307 476 238Q558 186 670 186Q814 186 900 281Q969 365 969 497Q969 610 946 683Q887 655 814 655Q726 655 667 704Q609 759 609 860Q609 939 670 995Q739 1049 833 1049Q893 1049 954 1022Q1003 999 1057 943Q1216 1049 1367 1049Q1570 1049 1682 916Q1787 792 1787 583Q1787 284 1602 -13L1385 87Q1537 313 1537 583Q1537 851 1337 851Q1274 851 1142 787Q1224 642 1224 492Q1224 254 1054 109Q897 -13 683 -13Q407 -13 262 113Q134 222 134 399Q134 535 184 675Q127 689 83 737Q33 791 33 860Q33 938 86 990Q150 1049 244 1049ZM829 913Q766 913 766 858Q766 837 785 817T829 797Q854 797 909 830Q874 913 829 913ZM238 912Q179 912 179 860Q179 809 238 809Q296 809 296 860Q296 880 278 896T238 912Z" horiz-adv-x="1857" unicode="ຫ"/>
			<glyph d="M585 1049Q900 1049 1126 915Q1381 764 1381 508Q1381 269 1195 128T702 -13Q415 -13 251 64Q72 154 72 290Q72 377 135 427T293 477Q388 477 446 428T505 305Q505 247 472 220Q551 186 700 186Q927 186 1033 277Q1130 372 1130 490Q1122 595 1052 660Q851 541 587 541Q389 541 251 588Q76 653 76 780Q76 907 246 983Q393 1049 585 1049ZM576 873Q324 873 324 784Q324 740 395 720Q469 701 590 701Q695 701 786 725Q848 745 899 782Q869 809 780 843Q686 873 576 873ZM300 346Q242 346 242 296Q242 275 259 260T300 245Q359 245 359 296Q359 346 300 346Z" horiz-adv-x="1434" unicode="ອ"/>
			<glyph d="M1199 1049L1400 959Q1286 762 1038 762Q928 762 740 803T483 845Q319 845 319 782Q319 701 720 646Q996 602 1130 555Q1390 466 1390 294Q1390 121 1169 37Q999 -28 745 -28Q476 -28 327 18Q92 92 92 245Q92 323 155 374T313 426Q408 426 466 377T525 254Q525 215 501 189Q596 161 745 161Q1140 161 1140 292Q1140 348 1030 378Q988 390 730 440Q448 495 314 541Q69 631 69 793Q69 910 171 975Q264 1034 415 1034Q537 1034 728 993T1000 952Q1154 952 1199 1049ZM320 296Q262 296 262 245Q262 224 279 209T320 194Q379 194 379 245Q379 296 320 296Z" horiz-adv-x="1448" unicode="ຮ"/>
			<glyph d="M835 1049H1087V0H837V652Q790 591 700 554Q584 508 458 508Q284 508 168 562Q30 632 30 776Q30 845 84 899T231 954Q326 954 384 904T443 781Q443 714 388 678Q422 667 468 667Q649 667 754 805Q835 929 835 1049ZM238 823Q180 823 180 772Q180 752 197 737T238 722Q297 722 297 772Q297 823 238 823Z" horiz-adv-x="1157" unicode="ຯ"/>
			<glyph d="M261 1049Q359 1049 420 997Q474 951 474 891Q474 833 412 800Q424 796 433 796Q524 796 587 854Q644 906 664 988H840Q812 847 692 755Q566 658 395 658Q257 658 159 714Q49 778 49 882Q49 948 104 997Q164 1049 261 1049ZM261 549Q359 549 420 497Q474 451 474 391Q474 333 412 300Q424 296 433 296Q524 296 587 354Q644 405 664 488H840Q812 347 692 255Q566 158 395 158Q257 158 159 214Q49 278 49 382Q49 448 104 497Q164 549 261 549ZM262 937Q207 937 207 889Q207 839 262 839Q316 839 316 889Q316 937 262 937ZM262 437Q207 437 207 388Q207 339 262 339Q316 339 316 388Q316 437 262 437Z" horiz-adv-x="885" unicode="ະ"/>
			<glyph d="M-200 1508Q-147 1508 -112 1474T-77 1386Q-77 1355 -96 1331Q-65 1323 -35 1323Q55 1323 123 1364Q201 1409 218 1490H306Q281 1368 185 1303Q96 1242 -35 1242Q-324 1242 -324 1386Q-324 1439 -288 1473T-200 1508ZM-200 1432Q-241 1432 -241 1391Q-241 1349 -200 1349Q-159 1349 -159 1391Q-159 1432 -200 1432Z" unicode="ັ"/>
			<glyph d="M445 1049Q651 1049 782 929Q904 815 904 634Q904 482 839 299Q778 127 683 -13L452 71Q654 358 654 636Q654 720 600 790Q532 861 420 861Q399 861 372 851Q448 813 448 737Q448 665 399 615Q342 556 242 556Q143 556 87 629Q40 693 40 756Q40 922 201 1005Q288 1049 445 1049ZM244 788Q186 788 186 737Q186 686 244 686Q301 686 301 737Q301 788 244 788Z" horiz-adv-x="975" unicode="າ"/>
			<glyph d="M165 1357Q224 1357 264 1321T305 1232Q305 1180 264 1142T165 1105Q106 1105 64 1142T22 1232Q22 1284 64 1320T165 1357ZM164 1275Q114 1275 114 1231Q114 1187 164 1187Q213 1187 213 1231Q213 1275 164 1275ZM445 1049Q651 1049 782 929Q904 815 904 634Q904 482 839 299Q778 127 683 -13L452 71Q654 358 654 636Q654 720 600 790Q532 861 420 861Q399 861 372 851Q448 813 448 737Q448 665 399 615Q342 556 242 556Q143 556 87 629Q40 693 40 756Q40 922 201 1005Q288 1049 445 1049ZM244 788Q186 788 186 737Q186 686 244 686Q301 686 301 737Q301 788 244 788Z" horiz-adv-x="975" unicode="ຳ"/>
			<glyph d="M0 1533Q193 1533 279 1500Q368 1464 368 1382Q368 1291 263 1260Q204 1242 84 1242V1330H121Q274 1330 274 1382Q274 1449 36 1449H-36Q-273 1449 -273 1382Q-273 1330 -120 1330H-83V1242Q-203 1242 -263 1260Q-367 1291 -367 1382Q-367 1464 -278 1500Q-192 1533 0 1533Z" unicode="ິ"/>
			<glyph d="M0 1533Q193 1533 279 1500Q368 1464 368 1382Q368 1360 344 1330H496V1242H84V1330H141Q274 1330 274 1382Q274 1449 36 1449H-36Q-273 1449 -273 1382Q-273 1330 -120 1330H-83V1242Q-215 1242 -265 1257Q-367 1286 -367 1382Q-367 1464 -278 1500Q-192 1533 0 1533Z" unicode="ີ"/>
			<glyph d="M0 1533Q193 1533 279 1500Q368 1464 368 1382Q368 1291 263 1260Q204 1242 84 1242V1330H121Q274 1330 274 1382Q274 1449 36 1449H-36Q-273 1449 -273 1382Q-273 1330 -120 1330H-83V1242Q-203 1242 -263 1260Q-367 1291 -367 1382Q-367 1464 -278 1500Q-192 1533 0 1533ZM0 1436Q54 1436 54 1379Q54 1326 0 1326Q-54 1326 -54 1382Q-54 1436 0 1436Z" unicode="ຶ"/>
			<glyph d="M0 1533Q193 1533 279 1500Q368 1464 368 1382Q368 1360 344 1330H496V1242H84V1330H141Q274 1330 274 1382Q274 1449 36 1449H-36Q-273 1449 -273 1382Q-273 1330 -120 1330H-83V1242Q-215 1242 -265 1257Q-367 1286 -367 1382Q-367 1464 -278 1500Q-192 1533 0 1533ZM0 1437Q54 1437 54 1380Q54 1326 0 1326Q-54 1326 -54 1383Q-54 1437 0 1437Z" unicode="ື"/>
			<glyph d="M-1 -18Q44 -18 71 -46T99 -120Q99 -189 17 -254L-38 -225Q-25 -215 -4 -193Q-44 -193 -71 -169T-99 -106Q-99 -67 -70 -42T-1 -18ZM-1 -77Q-30 -77 -30 -107Q-30 -137 -1 -137Q29 -137 29 -107Q29 -77 -1 -77Z" unicode="ຸ"/>
			<glyph d="M-90 -18Q-50 -18 -20 -45T10 -113V-132Q10 -187 49 -187Q95 -187 95 -132V-51H189V-136Q189 -263 49 -263Q16 -263 -17 -242Q-52 -220 -60 -192Q-73 -199 -90 -199Q-131 -199 -159 -174T-187 -109Q-187 -70 -158 -44T-90 -18ZM-90 -80Q-122 -80 -122 -109Q-122 -141 -90 -141Q-59 -141 -59 -109Q-59 -80 -90 -80Z" unicode="ູ"/>
			<glyph d="M-35 1508Q96 1508 185 1447Q281 1382 306 1260H218Q201 1340 123 1385Q55 1426 -35 1426Q-65 1426 -96 1418Q-77 1394 -77 1363Q-77 1310 -112 1276T-200 1242Q-253 1242 -288 1276T-324 1363Q-324 1508 -35 1508ZM-200 1401Q-241 1401 -241 1359Q-241 1318 -200 1318Q-159 1318 -159 1359Q-159 1401 -200 1401Z" unicode="ົ"/>
			<glyph d="M-133 -18Q-93 -18 -17 -39T90 -61Q153 -61 222 -18L255 -79Q184 -133 87 -133Q57 -133 3 -116Q-64 -96 -80 -93Q-75 -106 -75 -117Q-75 -153 -100 -175T-163 -197Q-202 -197 -228 -173T-254 -112Q-254 -18 -133 -18ZM-163 -82Q-192 -82 -192 -110Q-192 -137 -163 -137Q-136 -137 -136 -110Q-136 -82 -163 -82Z" unicode="ຼ"/>
			<glyph d="M206 1049Q345 1016 572 1016Q807 1016 932 1049L968 859Q825 818 581 818Q738 686 837 542Q973 344 973 169Q973 -357 477 -357Q280 -357 157 -262Q30 -163 30 10Q30 129 87 196Q148 266 254 266Q350 266 405 216T460 84Q460 -44 304 -80Q375 -159 474 -159Q612 -159 675 -58Q723 22 723 169Q723 523 178 897ZM254 135Q197 135 197 84Q197 33 254 33Q314 33 314 84Q314 135 254 135Z" horiz-adv-x="1003" unicode="ຽ"/>
			<glyph d="M508 1049Q697 1049 811 899L661 752Q597 851 496 851Q294 851 281 559Q281 404 342 319Q389 351 448 351Q535 351 591 305Q651 256 651 169Q651 85 592 36T428 -13Q261 -13 131 170Q32 330 32 523Q32 737 144 882Q274 1049 508 1049ZM446 221Q423 221 405 205T388 169Q388 118 446 118Q505 118 505 169Q505 221 446 221Z" horiz-adv-x="860" unicode="ເ"/>
			<glyph d="M508 1049Q697 1049 811 899L661 752Q597 851 496 851Q294 851 281 559Q281 404 342 319Q389 351 448 351Q535 351 591 305Q651 256 651 169Q651 85 592 36T428 -13Q261 -13 131 170Q32 330 32 523Q32 737 144 882Q274 1049 508 1049ZM446 221Q423 221 405 205T388 169Q388 118 446 118Q505 118 505 169Q505 221 446 221ZM1299 1049Q1488 1049 1602 899L1452 752Q1388 851 1287 851Q1085 851 1072 559Q1072 404 1133 319Q1180 351 1239 351Q1326 351 1382 305Q1442 256 1442 169Q1442 85 1383 36T1219 -13Q1052 -13 922 170Q823 330 823 523Q823 737 935 882Q1065 1049 1299 1049ZM1237 221Q1214 221 1196 205T1179 169Q1179 118 1237 118Q1296 118 1296 169Q1296 221 1237 221Z" horiz-adv-x="1651" unicode="ແ"/>
			<glyph d="M282 1799Q424 1799 536 1655L719 1410L562 1303L354 1582Q327 1618 301 1618Q269 1618 269 1585Q269 1555 317 1481Q391 1375 447 1295Q583 1081 583 967Q583 874 465 689T348 394Q348 325 393 275Q442 355 549 355Q633 355 689 312Q753 263 753 172Q753 88 691 38Q625 -13 504 -13Q317 -13 197 111Q98 223 98 394Q98 496 160 624Q178 661 276 825Q338 930 338 975Q338 1031 305 1097Q268 1160 231 1224Q126 1401 117 1418Q69 1508 69 1583Q69 1679 128 1739T282 1799ZM547 225Q489 225 489 173Q489 121 547 121Q605 121 605 173Q605 225 547 225Z" horiz-adv-x="881" unicode="ໂ"/>
			<glyph d="M472 1873Q672 1873 801 1764T930 1483Q930 1349 761 922T593 394Q593 325 638 275Q687 355 794 355Q878 355 934 312Q998 263 998 172Q998 88 936 38Q870 -13 749 -13Q560 -13 441 111Q343 223 343 384Q343 515 512 950T682 1489Q682 1674 472 1674Q265 1674 265 1496Q265 1355 443 1327L421 1126Q252 1141 151 1238T50 1496Q50 1670 168 1771T472 1873ZM792 225Q734 225 734 173Q734 121 792 121Q850 121 850 173Q850 225 792 225Z" horiz-adv-x="1048" unicode="ໃ"/>
			<glyph d="M318 1850L518 1503Q635 1299 635 1128Q635 994 493 745T352 394Q352 325 397 275Q446 355 553 355Q637 355 693 312Q757 263 757 172Q757 88 695 38Q629 -13 532 -13Q334 -13 213 104Q102 215 102 380Q102 515 243 774T385 1136Q385 1283 295 1439Q251 1515 108 1750ZM551 225Q493 225 493 173Q493 121 551 121Q609 121 609 173Q609 225 551 225Z" horiz-adv-x="837" unicode="ໄ"/>
			<glyph d="M341 1047Q383 1047 462 1012T571 978Q601 978 679 1012T799 1047Q1099 1047 1099 582V339Q1099 -357 571 -357Q415 -357 303 -295Q201 -238 111 -113L301 12Q349 -67 423 -122Q480 -159 591 -159Q744 -159 811 -3Q849 120 849 276V607Q849 777 817 813Q801 833 766 833Q732 833 674 803T571 774Q525 774 466 803T374 833Q316 833 308 694Q481 679 481 536Q481 455 426 405T275 355Q169 355 109 429Q52 498 52 629Q52 1047 341 1047ZM275 588Q218 588 218 536Q218 485 275 485Q335 485 335 536Q335 588 275 588Z" horiz-adv-x="1169" unicode="ໆ"/>
			<glyph d="M1 1508Q68 1508 68 1443L42 1242H-35L-67 1443Q-67 1508 1 1508Z" unicode="່"/>
			<glyph d="M0 1542Q48 1542 80 1511T112 1433Q112 1368 35 1329Q263 1362 387 1484L439 1425Q259 1242 -101 1242V1319Q-58 1319 -23 1341Q-110 1354 -110 1440Q-110 1484 -77 1513T0 1542ZM0 1473Q-36 1473 -36 1437Q-36 1400 0 1400Q38 1400 38 1437Q38 1473 0 1473Z" unicode="້"/>
			<glyph d="M-112 1535Q-43 1535 -3 1475H4Q36 1535 119 1535Q184 1535 223 1498T262 1399Q262 1357 233 1330H347V1242H68V1330Q170 1330 170 1397Q170 1451 110 1451Q85 1451 65 1425Q47 1401 43 1375H-44Q-46 1451 -106 1451Q-166 1451 -166 1381Q-166 1360 -161 1351Q-146 1374 -110 1374Q-83 1374 -65 1354T-47 1307Q-47 1243 -132 1243Q-186 1243 -224 1290Q-259 1333 -259 1389Q-259 1453 -218 1494T-112 1535Z" unicode="໊"/>
			<glyph d="M-39 1493H38V1406H125V1329H38V1242H-39V1329H-126V1406H-39Z" unicode="໋"/>
			<glyph d="M323 1526L392 1473Q335 1425 214 1425Q115 1424 85 1414Q111 1390 111 1345Q111 1299 78 1270T0 1242Q-47 1242 -79 1272T-111 1349Q-111 1504 195 1504Q295 1504 323 1526ZM0 1386Q-37 1386 -37 1349Q-37 1312 0 1312Q37 1312 37 1349Q37 1386 0 1386Z" unicode="໌"/>
			<glyph d="M0 1463Q48 1463 79 1429T111 1348Q111 1302 78 1272T0 1242Q-47 1242 -78 1274T-110 1353Q-110 1397 -77 1430T0 1463ZM0 1389Q-36 1389 -36 1353Q-36 1315 0 1315Q37 1315 37 1353Q37 1389 0 1389Z" unicode="ໍ"/>
			<glyph d="M735 1049Q1017 1049 1199 906Q1389 759 1389 517Q1389 276 1199 129Q1017 -13 735 -13Q453 -13 271 129Q81 277 81 519Q81 760 271 907Q453 1049 735 1049ZM735 851Q553 851 437 756Q335 657 335 519Q335 386 432 287Q555 186 735 186Q915 186 1041 286Q1135 387 1135 517Q1135 657 1036 754Q911 851 735 851Z" horiz-adv-x="1477" unicode="໐"/>
			<glyph d="M735 1049Q1038 1049 1217 914Q1402 774 1402 527Q1402 404 1329 256Q1252 101 1125 -13L920 118Q1062 251 1108 338Q1152 421 1152 527Q1152 644 1056 748Q946 851 735 851Q544 851 437 763Q326 662 326 544Q326 461 357 393Q414 288 540 288Q575 288 602 297Q526 335 526 411Q526 483 575 534Q632 592 732 592Q831 592 885 537Q934 488 934 404Q934 265 808 172Q696 94 552 94Q323 94 193 215Q71 328 71 525Q71 774 253 914Q431 1049 735 1049ZM730 463Q673 463 673 412Q673 360 730 360Q788 360 788 412Q788 463 730 463Z" horiz-adv-x="1473" unicode="໑"/>
			<glyph d="M783 1431L997 1382Q929 1214 840 1110Q703 949 479 702Q347 568 347 443Q347 333 426 269Q527 186 690 186Q737 186 785 206Q708 259 708 349Q708 443 772 498T954 554Q1067 554 1132 486Q1191 424 1191 328Q1191 159 1007 55Q876 -13 659 -13Q438 -13 280 91Q97 212 97 439Q97 593 226 745Q352 882 626 1181Q729 1294 783 1431Z" horiz-adv-x="1231" unicode="໒"/>
			<glyph d="M851 1447Q936 1447 1029 1415L1387 1292L1311 1124L950 1249Q924 1258 910 1258Q868 1258 868 1226Q868 1214 884 1200T1018 1141Q1153 1089 1221 1052Q1502 917 1502 515Q1502 264 1379 125T1035 -13Q815 -13 616 135Q443 -9 270 -9Q168 -9 109 41T50 172Q50 250 108 302T253 355Q360 353 434 251Q444 258 468 274Q299 451 299 632Q299 784 388 867Q472 947 595 947Q724 947 808 870Q897 789 897 632Q897 446 766 286Q900 186 1025 186Q1144 186 1199 280Q1252 367 1252 515Q1252 823 1082 914Q991 963 824 1025Q715 1064 657 1132Q612 1192 612 1264Q612 1335 675 1389Q752 1447 851 1447ZM600 788Q501 788 501 641Q501 538 605 403Q695 522 695 641Q695 788 600 788ZM255 224Q196 224 196 172Q196 121 255 121Q313 121 313 172Q313 193 295 208T255 224Z" horiz-adv-x="1556" unicode="໓"/>
			<glyph d="M1064 1395H1314V1240Q1314 1096 1230 1024Q1155 960 952 910L631 832Q475 797 401 740Q322 676 322 537V439Q322 340 346 267Q380 181 482 181Q544 181 692 248Q647 330 647 428Q647 582 750 674T1034 767Q1117 767 1187 722Q1263 673 1263 595Q1263 512 1201 464Q1145 421 1059 421Q942 421 896 514Q863 475 863 425Q863 361 886 326Q988 364 1071 364Q1172 364 1241 332Q1335 283 1335 178Q1335 91 1253 36Q1181 -13 1081 -13Q933 -13 799 108Q592 -13 436 -13Q218 -13 136 129Q71 241 71 499Q71 734 184 865Q296 977 536 1032L760 1079Q932 1116 993 1147Q1064 1184 1064 1274ZM1057 646Q1000 646 1000 595Q1000 543 1057 543Q1116 543 1116 595Q1116 646 1057 646ZM1056 223Q1014 223 957 192Q996 153 1056 153Q1128 153 1128 188Q1128 223 1056 223Z" horiz-adv-x="1405" unicode="໔"/>
			<glyph d="M1064 1395H1314V1271Q1314 1076 1179 974Q1071 894 882 894Q834 894 791 902Q775 886 753 870Q700 833 628 808Q576 791 525 775Q407 730 372 675Q321 605 321 492V439Q321 310 366 228Q397 181 473 181Q552 181 696 255Q647 330 647 428Q647 582 752 674T1014 767Q1117 767 1187 722Q1263 673 1263 595Q1263 512 1201 464Q1145 421 1059 421Q942 421 893 528Q867 494 867 414Q867 371 892 330Q988 364 1071 364Q1188 364 1256 321Q1335 274 1335 173Q1335 91 1253 33Q1181 -13 1081 -13Q927 -13 811 111Q581 -13 436 -13Q218 -13 136 129Q71 241 71 499Q71 731 177 842Q271 940 490 994Q540 1007 567 1026Q510 1074 510 1155Q510 1234 568 1282T715 1331Q810 1331 864 1275T918 1134Q918 1115 909 1092Q1064 1126 1064 1229ZM715 1209Q692 1209 674 1192T656 1155Q656 1134 678 1114T725 1092Q774 1118 774 1155Q774 1209 715 1209ZM1057 646Q1000 646 1000 595Q1000 543 1057 543Q1116 543 1116 595Q1116 646 1057 646ZM1056 223Q1014 223 957 192Q996 153 1056 153Q1128 153 1128 188Q1128 223 1056 223Z" horiz-adv-x="1405" unicode="໕"/>
			<glyph d="M958 1488Q1055 1484 1148 1452L1524 1323L1448 1154L1021 1306Q995 1314 981 1314Q939 1314 939 1282Q939 1270 955 1256T1075 1199Q1225 1132 1288 1100Q1639 938 1639 509Q1639 274 1520 139Q1387 -13 1147 -13Q983 -13 850 89Q718 -13 553 -13Q313 -13 180 137Q61 271 61 478Q61 675 181 849Q318 1049 524 1049Q629 1049 688 1000T747 868Q747 780 687 731Q631 686 544 686Q464 686 388 741Q311 622 311 478Q311 362 363 277Q422 186 557 186Q631 186 699 218Q614 301 614 376Q614 466 673 533Q743 607 845 607Q953 607 1023 535Q1082 470 1082 376Q1082 300 1002 219Q1074 186 1142 186Q1283 186 1338 274Q1387 371 1387 508Q1387 835 1144 941Q1114 959 965 1037Q839 1098 774 1147Q683 1213 683 1300Q683 1388 757 1442Q843 1494 958 1488ZM542 919Q484 919 484 868Q484 847 501 831T542 816Q601 816 601 868Q601 919 542 919ZM850 467Q791 467 791 394Q791 338 850 299Q905 341 905 394Q905 467 850 467Z" horiz-adv-x="1708" unicode="໖"/>
			<glyph d="M292 1049Q372 1049 434 1015Q508 972 556 903Q796 1049 997 1049Q1234 1049 1377 917Q1517 789 1517 584V-357H1267V575Q1267 680 1201 758Q1112 851 977 851Q846 851 637 742Q694 643 694 500Q694 305 587 148T315 -9Q221 -9 165 41T110 172Q110 250 168 302T313 355Q363 355 408 338Q449 403 449 498Q449 593 427 656Q362 630 291 630Q186 630 117 684T49 839Q49 923 122 986T292 1049ZM289 895Q226 895 226 840Q226 819 245 799T289 780Q324 780 379 812Q344 895 289 895ZM315 224Q256 224 256 172Q256 121 315 121Q373 121 373 172Q373 193 355 208T315 224Z" horiz-adv-x="1589" unicode="໗"/>
			<glyph d="M1031 1049Q1412 1049 1412 628V255Q1412 91 1297 14Q1360 -30 1360 -121Q1360 -199 1301 -247T1155 -296Q1060 -296 1005 -242Q952 -190 952 -105L573 -244Q449 -288 350 -288Q245 -288 185 -263Q68 -213 68 -121Q68 1 185 75Q276 133 420 183L1056 402Q1133 428 1148 449Q1162 468 1162 586Q1162 855 1019 855Q972 855 891 821T762 787Q709 787 623 818T495 849Q338 849 328 705Q366 724 420 724Q611 724 611 556Q611 475 548 425T375 375Q266 375 169 455Q72 546 72 682Q72 818 166 921Q281 1047 491 1047Q536 1047 628 1017T756 987Q799 987 894 1018T1031 1049ZM405 608Q348 608 348 556Q348 505 405 505Q465 505 465 556Q465 608 405 608ZM1142 -67Q1096 -88 1096 -123Q1096 -177 1155 -177Q1178 -177 1196 -160T1214 -123Q1214 -73 1142 -67ZM1162 255L411 -13Q324 -46 324 -82Q324 -114 366 -114Q379 -114 406 -104L887 64Q944 85 1015 85Q1084 85 1126 71Q1162 144 1162 255Z" horiz-adv-x="1483" unicode="໘"/>
			<glyph d="M610 1049Q769 1049 906 951Q1056 843 1056 665Q1056 619 1049 530T1042 396Q1042 300 1096 241Q1154 186 1233 186Q1346 186 1414 245Q1514 345 1514 487Q1514 678 1373 980L1611 1049Q1764 732 1764 477Q1764 256 1615 121T1228 -13Q1069 -13 937 82Q792 187 792 364Q792 413 799 504T806 643Q806 746 755 795Q694 851 605 851Q485 851 415 784Q324 685 324 558Q324 413 376 331Q410 351 458 351Q545 351 601 305Q661 256 661 169Q661 85 604 36T456 -13Q284 -13 166 187Q74 352 74 555Q74 783 210 914Q352 1049 610 1049ZM456 221Q433 221 415 205T398 169Q398 118 456 118Q515 118 515 169Q515 221 456 221Z" horiz-adv-x="1855" unicode="໙"/>
			<glyph d="M283 1049Q368 1049 433 1012Q508 957 508 860Q508 777 466 643T425 426Q425 307 527 240Q611 186 729 186Q883 186 966 283Q1043 379 1043 507Q1043 610 1018 681Q961 649 893 649Q799 649 740 702Q683 755 683 849Q683 945 745 996Q817 1049 894 1049Q966 1049 1024 1024Q1084 999 1133 931Q1287 1049 1438 1049Q1607 1049 1720 909Q1825 780 1825 569Q1825 395 1763 267Q1914 186 2015 186Q2165 186 2229 276Q2285 359 2285 454Q2285 663 2082 970L2310 1049Q2421 871 2467 764Q2535 604 2535 454Q2535 247 2405 121Q2270 -13 2035 -13Q1914 -13 1828 13Q1799 21 1660 81Q1615 21 1580 -13L1389 122Q1575 343 1575 569Q1575 686 1542 752Q1500 851 1398 851Q1335 851 1214 779Q1292 622 1292 492Q1292 254 1117 115Q956 -13 744 -13Q466 -13 313 113Q175 224 175 399Q175 535 225 675Q168 689 124 737Q74 791 74 860Q74 938 126 990Q188 1049 283 1049ZM903 913Q840 913 840 858Q840 837 859 817T903 797Q928 797 983 830Q948 913 903 913ZM279 912Q220 912 220 860Q220 809 279 809Q337 809 337 860Q337 880 319 896T279 912Z" horiz-adv-x="2605" unicode="ໜ"/>
			<glyph d="M287 1049Q366 1049 421 1018Q508 970 508 846Q508 777 466 643T425 426Q425 312 520 239Q601 186 743 186Q882 186 966 280Q1043 382 1043 507Q1043 610 1021 683Q958 654 894 654Q811 654 755 696Q683 754 683 849Q683 939 745 995Q813 1049 905 1049Q985 1049 1042 1016Q1094 985 1135 930Q1339 1049 1558 1049Q1745 1049 1872 925Q2008 792 2008 538Q2008 406 1939 275Q2111 186 2226 186Q2476 186 2476 454Q2476 663 2275 970L2501 1049Q2612 871 2658 764Q2726 604 2726 454Q2726 245 2606 121Q2479 -13 2246 -13Q2064 -13 1851 129Q1792 48 1726 15Q1670 -13 1597 -13Q1488 -13 1424 50T1360 205Q1360 296 1429 351T1603 406Q1674 406 1740 373Q1758 477 1758 539Q1758 667 1701 752Q1631 851 1518 851Q1400 851 1225 764Q1292 622 1292 492Q1292 254 1117 115Q956 -13 744 -13Q466 -13 313 113Q175 224 175 399Q175 535 225 675Q168 689 124 737Q74 791 74 860Q74 942 127 990Q187 1049 287 1049ZM903 913Q840 913 840 858Q840 837 859 817T903 797Q928 797 983 830Q948 913 903 913ZM1600 257Q1576 257 1556 237T1537 196Q1537 142 1600 142Q1655 142 1690 225Q1635 257 1600 257ZM279 912Q220 912 220 860Q220 809 279 809Q337 809 337 860Q337 880 319 896T279 912Z" horiz-adv-x="2796" unicode="ໝ"/>
			<glyph d="M0 1594H66V253H0Z" horiz-adv-x="66" unicode="‌"/>
			<glyph d="M-123 1883L33 1727L189 1883L234 1838L75 1682L234 1526L189 1481L63 1607V253H0V1604L-123 1481L-165 1526L-9 1682L-165 1838Z" horiz-adv-x="63" unicode="‍"/>
			<glyph d="M90 635H1014V506H90Z" horiz-adv-x="1104" unicode="‒"/>
			<glyph d="M0 657H1024V436H0Z" horiz-adv-x="1024" unicode="–"/>
			<glyph d="M0 657H2048V436H0Z" horiz-adv-x="2048" unicode="—"/>
			<glyph d="M0 635H2048V506H0Z" horiz-adv-x="2048" unicode="―"/>
			<glyph d="M285 1468H481L371 1024H96Z" horiz-adv-x="594" unicode="‘"/>
			<glyph d="M227 1468H500L307 1024H113Z" horiz-adv-x="594" unicode="’"/>
			<glyph d="M702 1468H897L784 1024H512ZM285 1468H481L371 1024H96Z" horiz-adv-x="1010" unicode="“"/>
			<glyph d="M641 1468H915L725 1024H528ZM227 1468H500L307 1024H113Z" horiz-adv-x="1010" unicode="”"/>
			<glyph d="M434 831Q548 831 629 750T711 557Q711 444 629 362T434 281Q321 281 240 362T160 557Q160 671 240 751T434 831Z" horiz-adv-x="865" unicode="•"/>
			<glyph d="M1556 307Q1637 307 1689 260T1741 143Q1741 70 1689 23T1554 -23Q1476 -23 1424 25T1372 143Q1372 215 1424 261T1556 307ZM934 307Q1015 307 1066 260T1118 143Q1118 70 1066 23T932 -23Q854 -23 803 25T752 143Q752 215 803 261T934 307ZM311 307Q392 307 444 260T496 143Q496 70 444 23T309 -23Q231 -23 180 25T129 143Q129 215 180 261T311 307Z" horiz-adv-x="1868" unicode="…"/>
			<glyph d="M825 1458Q992 1458 1094 1403V1143Q982 1231 840 1231Q730 1231 646 1160T528 971H954V784H498Q494 725 494 702Q494 675 496 643H954V453H526Q601 201 825 201Q966 201 1094 291V45Q976 -27 786 -27Q561 -27 419 97T231 453H109V643H205Q203 668 203 702Q203 720 207 784H109V971H236Q291 1202 444 1330T825 1458Z" horiz-adv-x="1178" unicode="€"/>
			<glyph d="M932 968Q980 968 980 918Q980 868 932 868Q880 868 880 918Q880 968 932 968ZM784 1067Q832 1067 832 1016Q832 967 784 967Q732 967 732 1016Q732 1067 784 1067ZM1030 819Q1079 819 1079 770Q1079 719 1028 719Q979 719 979 770Q979 819 1030 819ZM1067 646Q1115 646 1115 596Q1115 546 1067 546Q1015 546 1015 596Q1015 646 1067 646ZM608 1102Q658 1102 658 1053Q658 1002 608 1002Q558 1002 558 1053Q558 1102 608 1102ZM434 1067Q485 1067 485 1016Q485 967 434 967Q385 967 385 1016Q385 1067 434 1067ZM1028 473Q1079 473 1079 422Q1079 373 1028 373Q979 373 979 422Q979 473 1028 473ZM287 968Q337 968 337 918Q337 868 287 868Q237 868 237 915Q237 968 287 968ZM932 323Q980 323 980 272Q980 223 932 223Q880 223 880 272Q880 323 932 323ZM784 226Q832 226 832 174Q832 126 784 126Q732 126 732 174Q732 226 784 226ZM188 819Q238 819 238 770Q238 719 190 719Q138 719 138 770Q138 819 188 819ZM154 646Q203 646 202 596Q203 546 154 546Q102 546 102 596Q102 646 154 646ZM608 190Q658 190 658 141Q658 90 608 90Q558 90 558 141Q558 190 608 190ZM188 473Q238 473 238 422Q238 373 188 373Q138 373 138 422Q138 473 188 473ZM434 226Q485 226 485 178Q485 126 434 126Q385 126 385 174Q385 226 434 226ZM287 323Q337 323 337 272Q337 223 287 223Q237 223 237 272Q237 323 287 323Z" horiz-adv-x="1217" unicode="◌"/>
			<glyph d="M284 1296H1480V100H284ZM408 1172V224H1356V1172Z" horiz-adv-x="1764" unicode="◻"/>
			<glyph d="M284 1294H1480V98H284Z" horiz-adv-x="1764" unicode="◼"/>
			<glyph d="M554 1045H1210V389H554ZM678 921V513H1086V921Z" horiz-adv-x="1764" unicode="◽"/>
			<glyph d="M554 1045H1210V389H554Z" horiz-adv-x="1764" unicode="◾"/>
		</font>
</defs>
</svg>
